• Игры для PS4
  • Игры для PS3
  • Игры для XBOX360
  • Игры для PC
  • Игры для PS2
  • Игры для PSP
  • Для телефонов
  • Музыка
  • Книги / Журналы
  • Обои
  • Опрос
    Удобен ли сайт в использовании?
      0
    • Очень удобен, все понятно1,1,false,300,full
    • Удобен1,2,false,300,full
    • Средне1,3,false,300,full
    • Неудобен, трудно ориентироваться1,4,false,300,full
    • Совсем неудобен1,5,false,300,full
    Статистика
    Всего онлайн -
    Гостей -
    Пользователей -
    Короли трекера
    
    Благодарности () Закрыть
    Быстрее загружает сайты Экономит интернет—трафик Меняет оформление страницы ВК Блокирует всю рекламу на сайтах Загружает торренты как µTorrent клиент Объеденяет все твои чаты из соц. сетей в один Проигрывает твою музыку не заходя во ВКонтакте
    Новый интернет-браузер
    Orbitum
    Скачать
    и многое другое... Подробности на сайте производителя
    Over My Heart


    Исполнитель: Laura Branigan
    Альбом: Over My Heart
    Страна: USA
    Лейбл: Europe / Atlantic ‎– 7567-82489-2
    Дата выпуска: 1993
    Жанр: Synth-pop, Disco
    Формат: FLAC (image+cue)
    Битрейт: Lossless
    Продолжительность: 00:55:55
    Источник: Собственный рип оригинального диска

    Треклист:
    01. How Can I Help You To Say Goodbye [0:04:29.08]
    02. The Sweet Hello, The Sad Goodbye [0:05:07.17]
    03. Over My Heart [0:04:24.65]
    04. It"s Been Hard Enough Getting Over You [0:03:41.38]
    05. Is There Anybody Here But Me [0:04:51.57]
    06. Love Your Girl [0:04:34.40]
    07. Didn"t We Almost Win It All [0:05:09.23]
    08. Only Time Will Tell [0:04:25.40]
    09. I"ll Wait For You [0:04:40.47]
    10. Mujer Contra Mujer [0:05:07.10]
    11. Over You [0:05:20.70]
    12. Mangwane [0:04:02.03]

    Отчёт EAC

    Exact Audio Copy V1.0 beta 6 from 9. April 2015

    Отчёт EAC об извлечении, выполненном 13. декабря 2017, 19:13

    Laura Branigan / Over My Heart

    Дисковод: HL-DT-STBDDVDRW GGC-H20L   Adapter: 1  ID: 0

    Режим чтения                 : Достоверность
    Использование точного потока : Да
    Отключение кэша аудио        : Да
    Использование указателей C2  : Нет

    Коррекция смещения при чтении                     : 667
    Способность читать области Lead-in и Lead-out     : Нет
    Заполнение пропущенных сэмплов тишиной            : Да
    Удаление блоков с тишиной в начале и конце        : Нет
    При вычислениях CRC использовались нулевые сэмплы : Да
    Интерфейс                                         : Встроенный Win32-интерфейс для Win NT/2000

    Выходной формат          : Пользовательский кодировщик
    Выбранный битрейт        : 128 kBit/s
    Качество                 : Высокий
    Добавление ID3-тега      : Нет
    Утилита сжатия           : C:Program Files (x86)Exact Audio CopyFlacflac.exe
    Дополнительные параметры : -V -8 -T "Date=%year%" -T "Genre=%genre%" %source%

    TOC извлечённого CD

    Трек |   Старт  | Длительность | Начальный сектор | Конечный сектор
    ---------------------------------------------------------------------
    1  |  0:00.32 |    4:29.08   |          32      |      20214      
    2  |  4:29.40 |    5:07.17   |       20215      |      43256      
    3  |  9:36.57 |    4:24.65   |       43257      |      63121      
    4  | 14:01.47 |    3:41.38   |       63122      |      79734      
    5  | 17:43.10 |    4:51.57   |       79735      |     101616      
    6  | 22:34.67 |    4:34.40   |      101617      |     122206      
    7  | 27:09.32 |    5:09.23   |      122207      |     145404      
    8  | 32:18.55 |    4:25.40   |      145405      |     165319      
    9  | 36:44.20 |    4:40.47   |      165320      |     186366      
    10  | 41:24.67 |    5:07.10   |      186367      |     209401      
    11  | 46:32.02 |    5:20.70   |      209402      |     233471      
    12  | 51:52.72 |    4:02.03   |      233472      |     251624      

    Характеристики диапазона извлечения и сообщения об ошибках

    Выбранный диапазон

    Имя файла D:MusicLaura Branigan - Over My Heart.wav

    Пиковый уровень 100.0 %
    Скорость извлечения 7.4 X
    Качество диапазона 100.0 %
    CRC теста AE3CF05D
    CRC копии AE3CF05D
    Копирование... OK

    Ошибок не произошло

    Конец отчёта

    ==== Контрольная сумма отчёта 9BEEF097F9CB37FE0B3D4D66FDC5BC532C83E374EFFD8052CED475BE4DA686C2 ====Свернуть
    Похожие раздачи Искать похожие
    Инструкция по скачиванию
     1  Качаем uTorrent версии 2.0 и выше
     2  После установки, жмем выше под постером на ссылку Скачать [MediaGet] или Скачать .torrent
     3  Открываем скачанный файл через соответствующий клиент: MediaGet или uTorrent
     4  Ждем пока подключатся участники
     5  Качаем
    Комментарии о  Laura Branigan - Over My Heart | FLAC 
    Ближайшее в кино
    Вверх