• Игры для PS4
  • Игры для PS3
  • Игры для XBOX360
  • Игры для PC
  • Игры для PS2
  • Игры для PSP
  • Для телефонов
  • Музыка
  • Книги / Журналы
  • Обои
  • Опрос
    Удобен ли сайт в использовании?
      0
    • Очень удобен, все понятно1,1,false,300,full
    • Удобен1,2,false,300,full
    • Средне1,3,false,300,full
    • Неудобен, трудно ориентироваться1,4,false,300,full
    • Совсем неудобен1,5,false,300,full
    Статистика
    Всего онлайн -
    Гостей -
    Пользователей -
    Короли трекера
    
    Благодарности () Закрыть
    Быстрее загружает сайты Экономит интернет—трафик Меняет оформление страницы ВК Блокирует всю рекламу на сайтах Загружает торренты как µTorrent клиент Объеденяет все твои чаты из соц. сетей в один Проигрывает твою музыку не заходя во ВКонтакте
    Новый интернет-браузер
    Orbitum
    Скачать
    и многое другое... Подробности на сайте производителя
    Информация о фильме
    Название: Нога
    Год выхода: 1991
    Жанр: Драма
    Режиссер: Никита Тягунов
    В ролях: Иван Охлобыстин(Чужой), Петр Мамонов, Иван Захава, Наталья Петрова, Фархад Махмудов, Димаш Ахимов, Федор Смирнов, Шерали Абдулкайсов, Виктор Николаев, Оксана Мысина, Людмила Ларионова, Надежда Кожушаная, Алиев Я., Нелли Селезнева

    О фильме:
    Двое друзей-первокурсников попадают в Афганистан. Один из них (Рыжий) погибает, второй (Мартын) после тяжелого ранения лишился ноги. Вернувшись с войны, он и не подозревал, что настоящий кошмар для него только начинается. Ампутированная, "отчужденная" нога вырастает в его двойника, принявшего убийство как жизненную норму. Нога обретает собственную жизнь, и даже оказывается состоятельнее и упрямее самого Мартынова…



    Страна: Россия
    Студия: Киностудия 12А
    Продолжительность: 01:28:24
    Перевод: не требуется

    Файл
    Кодек: XviD
    Качество: DVDRip
    Формат видео: AVI
    Видео: 688x512 (1.34:1), 25 fps, XviD build 50 ~2150 kbps avg, 0.24 bit/pixel
    Аудио:  48 kHz, AC3 Dolby Digital, 2/0 (L,R) ch, ~192 kbps
    Сэмпл: https://yadi.sk/i/QnScnCXr3RFJpr

    MediaInfo

    Общее
    Полное имя                               : D:Noga (1991) DVDRip.avi
    Формат                                   : AVI
    Формат/Информация                        : Audio Video Interleave
    Размер файла                             : 1,45 Гбайт
    Продолжительность                        : 1 ч. 28 м.
    Общий поток                              : 2352 Кбит/сек
    Название фильма                          : Noga (1991) DVDRip
    Режиссёр                                 : Maksmet
    Программа кодирования                    : VirtualDubModRus 1.5.10.2 (build 2542/release)
    Формат оригинала/Имя                     : Movie
    Примечание                               : 07.01.2018

    Видео
    Идентификатор                            : 0
    Формат                                   : MPEG-4 Visual
    Профиль формата                          : Advanced Simple@L5
    Параметр BVOP формата                    : 1
    Параметр QPel формата                    : Нет
    Параметр GMC формата                     : Без точки перехода
    Параметр матрицы формата                 : Выборочная
    Идентификатор кодека                     : XVID
    Идентификатор кодека/Подсказка           : XviD
    Продолжительность                        : 1 ч. 28 м.
    Битрейт                                  : 2150 Кбит/сек
    Ширина                                   : 688 пикселей
    Высота                                   : 512 пикселей
    Соотношение сторон                       : 4:3
    Частота кадров                           : 25,000 кадров/сек
    Цветовое пространство                    : YUV
    Субдискретизация насыщенности            : 4:2:0
    Битовая глубина                          : 8 бит
    Тип развёртки                            : Прогрессивная
    Метод сжатия                             : С потерями
    Бит/(Пиксели*Кадры)                      : 0.244
    Размер потока                            : 1,33 Гбайт (91%)
    Библиотека кодирования                   : XviD 1.2.1 (UTC 2008-12-04)

    Аудио
    Идентификатор                            : 1
    Формат                                   : AC-3
    Формат/Информация                        : Audio Coding 3
    Параметр Endianness формата              : Big
    Идентификатор кодека                     : 2000
    Продолжительность                        : 1 ч. 28 м.
    Вид битрейта                             : Постоянный
    Битрейт                                  : 192 Кбит/сек
    Каналы                                   : 2 канала
    Расположение каналов                     : Front: L R
    Частота                                  : 48,0 КГц
    Частота кадров                           : 31,250 кадров/сек (1536 SPF)
    Битовая глубина                          : 16 бит
    Метод сжатия                             : С потерями
    Размер потока                            : 121 Мбайт (8%)
    Выравнивание                             : Разделение по промежуткам
    Продолжительность промежутка             : 40  мс. (1,00 видеокадр)
    Время предзагрузки промежутка            : 500  мс.
    ServiceKind/String                       : Complete Main

    Свернуть


    Скриншот c названием фильма

    [screen]http://i102.fastpic.ru/big/2018/0107/8b/062c38ee6b5e73d1864bf0b0ca82b78b.png[/screen]
    Свернуть


    Скриншоты

    [screen]http://i99.fastpic.ru/big/2018/0107/15/8239393fd0b79e334cfa732c3e587f15.png[/screen][screen]http://i99.fastpic.ru/big/2018/0107/6a/7108aafcab258ca453ce315050f63b6a.png[/screen][screen]http://i99.fastpic.ru/big/2018/0107/56/814a73d2734c0454c7efafb652abda56.png[/screen][screen]http://i99.fastpic.ru/big/2018/0107/c5/fbb594527d969f5c236096ba44a60ac5.png[/screen][screen]http://i99.fastpic.ru/big/2018/0107/92/8d3f0cfab6b103054b13927ed48e3392.png[/screen][screen]http://i99.fastpic.ru/big/2018/0107/a5/0785971668fd338a67c38b44c7cb9ba5.png[/screen]
    Свернуть
    Похожие раздачи Искать похожие
    Инструкция по скачиванию
     1  Качаем uTorrent версии 2.0 и выше
     2  После установки, жмем выше под постером на ссылку Скачать [MediaGet] или Скачать .torrent
     3  Открываем скачанный файл через соответствующий клиент: MediaGet или uTorrent
     4  Ждем пока подключатся участники
     5  Качаем
    Комментарии о  Нога | DVDRip 
    Ближайшее в кино
    Вверх