• Игры для PS4
  • Игры для PS3
  • Игры для XBOX360
  • Игры для PC
  • Игры для PS2
  • Игры для PSP
  • Для телефонов
  • Музыка
  • Книги / Журналы
  • Обои
  • Опрос
    Откуда Вы о нас узнали?
      0
    • От знакомых2,1,false,300,full
    • Из социальных сетей2,2,false,300,full
    • Из поисковых систем2,3,false,300,full
    • Другое2,4,false,300,full
    Статистика
    Всего онлайн -
    Гостей -
    Пользователей -
    Короли трекера
    
    Благодарности () Закрыть
    Быстрее загружает сайты Экономит интернет—трафик Меняет оформление страницы ВК Блокирует всю рекламу на сайтах Загружает торренты как µTorrent клиент Объеденяет все твои чаты из соц. сетей в один Проигрывает твою музыку не заходя во ВКонтакте
    Новый интернет-браузер
    Orbitum
    Скачать
    и многое другое... Подробности на сайте производителя
    Исполнитель/Группа: Павел Зибров
    Жанр:  POP
    Год выпуска: 2017
    Продолжительность: 02:18:56

    Описание: Народный артист, звезда и лучший баритон украинской эстрады, президент "Партии почитателей женщин" Павел Зибров приглашает на юбилейный концерт "В эпицентре любви".
    Народный артист Украины Павел Зибров приглашает на финальный концерт всеукраинского юбилейного тура. Новые песни и давно любимые поклонниками шлягеры, на которых выросло целое поколение. Подумать только, некоторые поклонники исполнителя под его бархатный голос засыпали в колыбели и подпевали на импровизированном концерте для родителей.
    Настоящий корифей, над которым не властно время, его песни и сейчас свежи и актуальны. Знаменитый певец даже читал реп, и не хуже молодых именитых реперов. В честь Зиброва даже девушки молодой команды "Плюшевый Бруклин" наклеили себе усы.
    Его голос завораживает и в лирике, и в заводных танцевальных песнях. Поздравить обаятельного усача придет целое созвездие артистов, известных далеко за пределами Украины.

    Певец выпустил более двадцати альбомов, его песни уже стали классикой, и ни один праздник не обходится без его шлягеров, и в планах исполнителя покорить не только своих сверстников, но молодежную аудиторию. И учитывая огромную энергетику, трудолюбие и упорство исполнителя, он может снова собирать стадионы.

    Формат: MPG
    Качество: DVB
    Видео кодек: MPEG-2
    Аудио кодек: MP2
    Видео: MPEG-2, ~3300 Kbps, 720x576@1024x576 (16:9), 25fps
    Аудио: MP2, 48000Hz, 2ch, 192 kbps
    MedaInfo
    Zibrov_2017.mpg
    Format                                   : MPEG-PS
    File size                                : 3.46 GiB
    Duration                                 : 2 h 18 min
    Overall bit rate mode                    : Variable
    Overall bit rate                         : 3 563 kb/s

    Video
    ID                                       : 224 (0xE0)
    Format                                   : MPEG Video
    Format version                           : Version 2
    Format profile                           : Main@Main
    Format settings                          : CustomMatrix / BVOP
    Format settings, BVOP                    : Yes
    Format settings, Matrix                  : Custom
    Format settings, GOP                     : Variable
    Format settings, picture structure       : Frame
    Duration                                 : 2 h 18 min
    Bit rate mode                            : Variable
    Bit rate                                 : 3 300 kb/s
    Maximum bit rate                         : 15.0 Mb/s
    Width                                    : 720 pixels
    Height                                   : 576 pixels
    Display aspect ratio                     : 16:9
    Frame rate                               : 25.000 FPS
    Standard                                 : PAL
    Color space                              : YUV
    Chroma subsampling                       : 4:2:0
    Bit depth                                : 8 bits
    Scan type                                : Interlaced
    Scan order                               : Top Field First
    Compression mode                         : Lossy
    Bits/(Pixel*Frame)                       : 0.318
    Stream size                              : 3.20 GiB (93%)

    Audio
    ID                                       : 192 (0xC0)
    Format                                   : MPEG Audio
    Format version                           : Version 1
    Format profile                           : Layer 2
    Duration                                 : 2 h 18 min
    Bit rate mode                            : Constant
    Bit rate                                 : 192 kb/s
    Channel(s)                               : 2 channels
    Sampling rate                            : 48.0 kHz
    Compression mode                         : Lossy
    Stream size                              : 191 MiB (5%)Свернуть


    Похожие раздачи Искать похожие
    Инструкция по скачиванию
     1  Качаем uTorrent версии 2.0 и выше
     2  После установки, жмем выше под постером на ссылку Скачать [MediaGet] или Скачать .torrent
     3  Открываем скачанный файл через соответствующий клиент: MediaGet или uTorrent
     4  Ждем пока подключатся участники
     5  Качаем
    Комментарии о  Павел Зибров - Концерт В эпицентре любви 
    Ближайшее в кино
    Вверх