• Игры для PS4
  • Игры для PS3
  • Игры для XBOX360
  • Игры для PC
  • Игры для PS2
  • Игры для PSP
  • Для телефонов
  • Музыка
  • Книги / Журналы
  • Обои
  • Опрос
    Откуда Вы о нас узнали?
      0
    • От знакомых2,1,false,300,full
    • Из социальных сетей2,2,false,300,full
    • Из поисковых систем2,3,false,300,full
    • Другое2,4,false,300,full
    Статистика
    Всего онлайн -
    Гостей -
    Пользователей -
    Короли трекера
    
    Благодарности () Закрыть
    Быстрее загружает сайты Экономит интернет—трафик Меняет оформление страницы ВК Блокирует всю рекламу на сайтах Загружает торренты как µTorrent клиент Объеденяет все твои чаты из соц. сетей в один Проигрывает твою музыку не заходя во ВКонтакте
    Новый интернет-браузер
    Orbitum
    Скачать
    и многое другое... Подробности на сайте производителя
    The Best Of Branigan


    Исполнитель: Laura Branigan
    Альбом: The Best Of Branigan
    Страна: USA
    Лейбл: Europe / Atlantic / 7567-82757-2
    Дата выпуска: 1995
    Жанр: Synth-pop, Disco
    Формат: FLAC (image+cue)
    Битрейт: Lossless
    Продолжительность: 00:59:27
    Источник: Собственный рип оригинального диска

    Треклист:
    01. Solitaire
    02. Show Me Heaven
    03. Ti Amo
    04. Spanish Eddie
    05. The Power Of Love
    06. Is There Anybody Here But Me?
    07. Dim All The Lights
    08. How Am I Supposed To Live Without You?
    09. Over You
    10. The Lucky One
    11. How Can I Help You Say Goodbye?
    12. Self Control
    13. Gloria

    Отчёт EAC

    Exact Audio Copy V1.0 beta 6 from 9. April 2015

    EAC extraction logfile from 11. December 2017, 13:18

    Laura Branigan / The Best of Branigan

    Used drive  : HL-DT-STBDDVDRW GGC-H20L   Adapter: 1  ID: 0

    Read mode               : Secure
    Utilize accurate stream : Yes
    Defeat audio cache      : Yes
    Make use of C2 pointers : No

    Read offset correction                      : 667
    Overread into Lead-In and Lead-Out          : No
    Fill up missing offset samples with silence : Yes
    Delete leading and trailing silent blocks   : No
    Null samples used in CRC calculations       : Yes
    Used interface                              : Native Win32 interface for Win NT & 2000

    Used output format              : User Defined Encoder
    Selected bitrate                : 128 kBit/s
    Quality                         : High
    Add ID3 tag                     : No
    Command line compressor         : C:Program Files (x86)Exact Audio CopyFlacflac.exe
    Additional command line options : -V -8 -T "Date=%year%" -T "Genre=%genre%" %source%

    TOC of the extracted CD

    Track |   Start  |  Length  | Start sector | End sector
    ---------------------------------------------------------
    1  |  0:00.00 |  4:09.12 |         0    |    18686  
    2  |  4:09.12 |  4:11.05 |     18687    |    37516  
    3  |  8:20.17 |  4:15.53 |     37517    |    56694  
    4  | 12:35.70 |  4:15.17 |     56695    |    75836  
    5  | 16:51.12 |  5:25.38 |     75837    |   100249  
    6  | 22:16.50 |  4:52.37 |    100250    |   122186  
    7  | 27:09.12 |  4:44.38 |    122187    |   143524  
    8  | 31:53.50 |  4:31.32 |    143525    |   163881  
    9  | 36:25.07 |  5:21.43 |    163882    |   187999  
    10  | 41:46.50 |  4:12.15 |    188000    |   206914  
    11  | 45:58.65 |  4:30.55 |    206915    |   227219  
    12  | 50:29.45 |  4:07.65 |    227220    |   245809  
    13  | 54:37.35 |  4:49.52 |    245810    |   267536  

    Range status and errors

    Selected range

    Filename D:MusicLaura Branigan - The Best of Branigan.wav

    Peak level 100.0 %
    Extraction speed 7.4 X
    Range quality 99.9 %
    Test CRC 1720E356
    Copy CRC 1720E356
    Copy OK

    No errors occurred

    End of status report

    ==== Log checksum E2B3BF27D28ECCCB1CD6D1D8B689C9B38BF7A2A9F8D6C501450BD1E59C291623 ====Свернуть
    Похожие раздачи Искать похожие
    Инструкция по скачиванию
     1  Качаем uTorrent версии 2.0 и выше
     2  После установки, жмем выше под постером на ссылку Скачать [MediaGet] или Скачать .torrent
     3  Открываем скачанный файл через соответствующий клиент: MediaGet или uTorrent
     4  Ждем пока подключатся участники
     5  Качаем
    Комментарии о  Laura Branigan - The Best Of Branigan | FLAC 
    Ближайшее в кино
    Вверх