• Игры для PS4
  • Игры для PS3
  • Игры для XBOX360
  • Игры для PC
  • Игры для PS2
  • Игры для PSP
  • Для телефонов
  • Музыка
  • Книги / Журналы
  • Обои
  • Опрос
    Удобен ли сайт в использовании?
      0
    • Очень удобен, все понятно1,1,false,300,full
    • Удобен1,2,false,300,full
    • Средне1,3,false,300,full
    • Неудобен, трудно ориентироваться1,4,false,300,full
    • Совсем неудобен1,5,false,300,full
    Статистика
    Всего онлайн -
    Гостей -
    Пользователей -
    Короли трекера
    
    Благодарности () Закрыть
    Быстрее загружает сайты Экономит интернет—трафик Меняет оформление страницы ВК Блокирует всю рекламу на сайтах Загружает торренты как µTorrent клиент Объеденяет все твои чаты из соц. сетей в один Проигрывает твою музыку не заходя во ВКонтакте
    Новый интернет-браузер
    Orbitum
    Скачать
    и многое другое... Подробности на сайте производителя
    Информация о фильме
    Название: Борг/Макинрой
    Оригинальное название: Borg McEnroe
    Год выхода: 2017
    Жанр: драма, биография, спорт
    Режиссер: Янус Мец
    В ролях: Сверрир Гуднасон, Шайа ЛаБаф, Стеллан Скарсгард, Тува Новотны, Лео Борг, Маркус Моссберг, Джексон Гэнн, Скотт Артур, Йен Блэкман, Роберт Эммс

    О фильме:
    Две звезды, один судьбоносный матч и миллионы зрителей.
    Невозмутимый Борг против вспыльчивого Макинроя. Упорство против упрямства. Борьба двух противоположных характеров, движимых, однако, одной целью — быть лучшим!

    [img]http://imdb.snick.ru/ratefor/02/tt5727282.png[/img]
    Страна: Швеция, Дания, Финляндия
    Студия: SF Studios Production AB, Danish Film Institute, Film i Väst
    Продолжительность: 01:47:34
    Перевод: Дублированный | iTunes

    Файл
    Кодек: H.264(NVENC)
    Качество: WEB-DLRip (AVC)
    Видео: 1024x428 (2.40:1), 24.000 fps, MPEG-4 AVC, 1 956 Kbps
    Звук: AC3, 384 Kbps, 48.0 KHz, 6 ch

    http://sendfile.su/1389865


    Скриншоты
    [screen]http://i102.fastpic.ru/big/2018/0107/f5/7e296472e591b5d219e61096d61794f5.png[/screen][screen]http://i99.fastpic.ru/big/2018/0107/d8/3cfbdc100e5d6bc9b44074e63e724fd8.png[/screen][screen]http://i100.fastpic.ru/big/2018/0107/86/bb687b3f1b922947f3fee0b3f2954d86.png[/screen][screen]http://i103.fastpic.ru/big/2018/0107/87/1bec7d115084017dfbe6831e3cab4c87.jpg[/screen]Свернуть


    МедиаИнфо
    General
    Unique ID                                : 253180548559501764281173606735952433331 (0xBE78CCCB89383CE613F07D72E25350B3)
    Complete name                            : Borg.McEnroe.2017.WEB-DLRip (AVC) by WSM.mkv
    Format                                   : Matroska
    Format version                           : Version 4 / Version 2
    File size                                : 1.79 GiB
    Duration                                 : 1h 47mn
    Overall bit rate mode                    : Variable
    Overall bit rate                         : 2 388 Kbps
    Encoded date                             : UTC 2018-01-07 14:51:27
    Writing application                      : Lavf58.2.103
    Writing library                          : Lavf58.2.103
    ARTIST                                   : WSM

    Video
    ID                                       : 1
    Format                                   : AVC
    Format/Info                              : Advanced Video Codec
    Format profile                           : Main@L4.1
    Format settings, CABAC                   : Yes
    Format settings, ReFrames                : 7 frames
    Codec ID                                 : V_MPEG4/ISO/AVC
    Duration                                 : 1h 47mn
    Bit rate mode                            : Variable
    Bit rate                                 : 1 956 Kbps
    Maximum bit rate                         : 3 500 Kbps
    Width                                    : 1 024 pixels
    Height                                   : 428 pixels
    Display aspect ratio                     : 2.40:1
    Frame rate mode                          : Constant
    Frame rate                               : 24.000 fps
    Color space                              : YUV
    Chroma subsampling                       : 4:2:0
    Bit depth                                : 8 bits
    Scan type                                : Progressive
    Bits/(Pixel*Frame)                       : 0.186
    Stream size                              : 1.47 GiB (82%)
    Writing library                          : Lavc58.8.100 nvenc_h264
    Language                                 : English
    Default                                  : Yes
    Forced                                   : No
    DURATION                                 : 01:47:34.584000000
    Color primaries                          : BT.709
    Transfer characteristics                 : BT.709
    Matrix coefficients                      : BT.709

    Audio
    ID                                       : 2
    Format                                   : AC-3
    Format/Info                              : Audio Coding 3
    Mode extension                           : CM (complete main)
    Format settings, Endianness              : Big
    Codec ID                                 : A_AC3
    Duration                                 : 1h 47mn
    Bit rate mode                            : Constant
    Bit rate                                 : 384 Kbps
    Channel(s)                               : 6 channels
    Channel positions                        : Front: L C R, Side: L R, LFE
    Sampling rate                            : 48.0 KHz
    Bit depth                                : 16 bits
    Compression mode                         : Lossy
    Stream size                              : 295 MiB (16%)
    Language                                 : Russian
    Default                                  : Yes
    Forced                                   : No
    DURATION                                 : 01:47:34.624000000Свернуть
    Похожие раздачи Искать похожие
    Инструкция по скачиванию
     1  Качаем uTorrent версии 2.0 и выше
     2  После установки, жмем выше под постером на ссылку Скачать [MediaGet] или Скачать .torrent
     3  Открываем скачанный файл через соответствующий клиент: MediaGet или uTorrent
     4  Ждем пока подключатся участники
     5  Качаем
    Комментарии о  Борг/Макинрой / Borg McEnroe | WEB-DLRip-AVC 
    Ближайшее в кино
    Вверх