• Игры для PS4
  • Игры для PS3
  • Игры для XBOX360
  • Игры для PC
  • Игры для PS2
  • Игры для PSP
  • Для телефонов
  • Музыка
  • Книги / Журналы
  • Обои
  • Опрос
    Откуда Вы о нас узнали?
      0
    • От знакомых2,1,false,300,full
    • Из социальных сетей2,2,false,300,full
    • Из поисковых систем2,3,false,300,full
    • Другое2,4,false,300,full
    Статистика
    Всего онлайн -
    Гостей -
    Пользователей -
    Короли трекера
    
    Благодарности () Закрыть
    Быстрее загружает сайты Экономит интернет—трафик Меняет оформление страницы ВК Блокирует всю рекламу на сайтах Загружает торренты как µTorrent клиент Объеденяет все твои чаты из соц. сетей в один Проигрывает твою музыку не заходя во ВКонтакте
    Новый интернет-браузер
    Orbitum
    Скачать
    и многое другое... Подробности на сайте производителя
    Название: Выстрел в пустоту
    Оригинальное название: Shot Caller
    Год выхода: 2017
    Жанр: Триллер, драма, криминал
    Режиссер: Рик Роман Во
    В ролях: Николай Костер-Вальдау, Джон Бернтал, Лэйк Белл, Омари Хардвик, Джеффри Донован, Эмори Коэн, Бенджамин Брэтт, Джесси Шрэм, Холт МакКэллани.

    О фильме:
    Роковая случайность, смертельная трагедия, и вся его жизнь летит под откос. Оказавшись за решеткой, он должен научиться жить по новым законам. Ты должен стать борцом, авторитетом или окажешься жертвой. Какую цену придется заплатить, чтобы выжить в этом аду, из которого нет дороги назад?..



    Страна: США
    Студия: Relativity Media
    Продолжительность: 02:00:41
    Перевод: авторский (одноголосый)
    Субтитры: английские

    Формат: MKV
    Качество: BDRip-AVC
    Видео: MPEG-4 AVC / 2057 kbps / 1024x426 / 23.976 fps
    Звук:
    #1. Русский: Dolby Digital Audio, 5.1, 48 kHz, 448 kbps - Есарев
    #2. English: Dolby Digital Audio, 5.1, 48 kHz, 448 kbps - Оригинал

    [img]http://i103.fastpic.ru/big/2017/1225/c7/76c13c065db91c4f4a1ff0b5b6b639c7.png[/img]

    MediaInfo
    Format                      : Matroska
    Format version              : Version 4 / Version 2
    File size                   : 2.49 GiB
    Duration                    : 2 h 0 min
    Overall bit rate            : 2 953 kb/s
    Encoded date                : UTC 2018-01-06 13:21:43
    Writing application         : mkvmerge v8.3.0 ("Over the Horizon") 64bit
    Writing library             : libebml v1.3.1 + libmatroska v1.4.2
    Cover                       : Yes
    Attachments                 : cover.jpg

    Video
    ID                          : 1
    Format                      : AVC
    Format/Info                 : Advanced Video Codec
    Format profile              : High@L4.1
    Format settings, CABAC      : Yes
    Format settings, RefFrames  : 10 frames
    Codec ID                    : V_MPEG4/ISO/AVC
    Duration                    : 2 h 0 min
    Bit rate                    : 2 057 kb/s
    Width                       : 1 024 pixels
    Height                      : 426 pixels
    Display aspect ratio        : 2.40:1
    Frame rate mode             : Constant
    Frame rate                  : 23.976 (24000/1001) FPS
    Color space                 : YUV
    Chroma subsampling          : 4:2:0
    Bit depth                   : 8 bits
    Scan type                   : Progressive
    Bits/(Pixel*Frame)          : 0.197
    Stream size                 : 1.73 GiB (70%)
    Writing library             : x264 core 146 r2538 121396c
    Encoding settings           : cabac=1 / ref=10 / deblock=1:-3:-3 / analyse=0x3:0x133 / me=umh / subme=11 / psy=1 / psy_rd=1.00:0.07 / mixed_ref=1 / me_range=48 / chroma_me=1 / trellis=2 / 8x8dct=1 / cqm=0 / deadzone=21,11 / fast_pskip=0 / chroma_qp_offset=-3 / threads=6 / lookahead_threads=1 / sliced_threads=0 / nr=0 / decimate=0 / interlaced=0 / bluray_compat=0 / constrained_intra=0 / bframes=10 / b_pyramid=2 / b_adapt=2 / b_bias=0 / direct=3 / weightb=1 / open_gop=0 / weightp=2 / keyint=240 / keyint_min=23 / scenecut=40 / intra_refresh=0 / rc_lookahead=40 / rc=2pass / mbtree=0 / bitrate=2057 / ratetol=1.0 / qcomp=0.60 / qpmin=0 / qpmax=69 / qpstep=4 / cplxblur=20.0 / qblur=0.5 / vbv_maxrate=50000 / vbv_bufsize=62500 / nal_hrd=none / filler=0 / ip_ratio=1.40 / pb_ratio=1.30 / aq=1:1.00
    Language                    : English
    Default                     : Yes
    Forced                      : No

    Audio #1
    ID                          : 2
    Format                      : AC-3
    Format/Info                 : Audio Coding 3
    Format settings, Endianness : Big
    Codec ID                    : A_AC3
    Duration                    : 2 h 0 min
    Bit rate mode               : Constant
    Bit rate                    : 448 kb/s
    Channel(s)                  : 6 channels
    Channel positions           : Front: L C R, Side: L R, LFE
    Sampling rate               : 48.0 kHz
    Frame rate                  : 31.250 FPS (1536 SPF)
    Bit depth                   : 16 bits
    Compression mode            : Lossy
    Stream size                 : 387 MiB (15%)
    Title                       : AVO Д.Есарев
    Language                    : Russian
    Service kind                : Complete Main
    Default                     : Yes
    Forced                      : Yes

    Audio #2
    ID                          : 3
    Format                      : AC-3
    Format/Info                 : Audio Coding 3
    Format settings, Endianness : Big
    Codec ID                    : A_AC3
    Duration                    : 2 h 0 min
    Bit rate mode               : Constant
    Bit rate                    : 448 kb/s
    Channel(s)                  : 6 channels
    Channel positions           : Front: L C R, Side: L R, LFE
    Sampling rate               : 48.0 kHz
    Frame rate                  : 31.250 FPS (1536 SPF)
    Bit depth                   : 16 bits
    Compression mode            : Lossy
    Stream size                 : 387 MiB (15%)
    Title                       : Original
    Language                    : English
    Service kind                : Complete Main
    Default                     : No
    Forced                      : No

    Text
    ID                          : 4
    Format                      : UTF-8
    Codec ID                    : S_TEXT/UTF8
    Codec ID/Info               : UTF-8 Plain Text
    Duration                    : 1 h 53 min
    Bit rate                    : 47 b/s
    Count of elements           : 1324
    Stream size                 : 39.5 KiB (0%)
    Title                       : SDH
    Language                    : English
    Default                     : No
    Forced                      : No

    Menu
    00:00:00.000                : en:Chapter 01
    00:22:10.620                : en:Chapter 02
    00:35:14.570                : en:Chapter 03
    00:53:04.848                : en:Chapter 04
    01:06:42.039                : en:Chapter 05
    01:22:27.359                : en:Chapter 06
    01:40:29.481                : en:Chapter 07
    01:54:38.454                : en:Chapter 08Свернуть


    Похожие раздачи Искать похожие
    Инструкция по скачиванию
     1  Качаем uTorrent версии 2.0 и выше
     2  После установки, жмем выше под постером на ссылку Скачать [MediaGet] или Скачать .torrent
     3  Открываем скачанный файл через соответствующий клиент: MediaGet или uTorrent
     4  Ждем пока подключатся участники
     5  Качаем
    Комментарии о  Выстрел в пустоту / Shot Caller | BDRip-AVC 
    Ближайшее в кино
    Вверх