• Игры для PS4
  • Игры для PS3
  • Игры для XBOX360
  • Игры для PC
  • Игры для PS2
  • Игры для PSP
  • Для телефонов
  • Музыка
  • Книги / Журналы
  • Обои
  • Опрос
    Удобен ли сайт в использовании?
      0
    • Очень удобен, все понятно1,1,false,300,full
    • Удобен1,2,false,300,full
    • Средне1,3,false,300,full
    • Неудобен, трудно ориентироваться1,4,false,300,full
    • Совсем неудобен1,5,false,300,full
    Статистика
    Всего онлайн -
    Гостей -
    Пользователей -
    Короли трекера
    
    Благодарности () Закрыть
    Быстрее загружает сайты Экономит интернет—трафик Меняет оформление страницы ВК Блокирует всю рекламу на сайтах Загружает торренты как µTorrent клиент Объеденяет все твои чаты из соц. сетей в один Проигрывает твою музыку не заходя во ВКонтакте
    Новый интернет-браузер
    Orbitum
    Скачать
    и многое другое... Подробности на сайте производителя
    Информация о фильме
    Название: Наемник
    Оригинальное название: American Assassin
    Год выхода: 2017
    Жанр: Боевик
    Режиссер: Майкл Куэста
    В ролях: Дилан О’Брайен, Майкл Китон, Санаа Лэтэн, Шива Негар, Тейлор Китч, Дэвид Суше, Навид Негабан, Скотт Эдкинс, Шарлотта Вега, Кристофер Уэбстер

    О фильме:
    23-летний агент ЦРУ Митч Рэпп (Дилан О"Брайен), еще в раннем возрасте оставшийся без родителей, тяжело переживает гибель своей невесты, ставшей жертвой теракта. Решив помочь убитому горем Митчу, заместитель директора ЦРУ Ирэн Кеннеди (Санаа Лэтэн) назначает ему нового наставника в лице ветерана Холодной войны Стэна Хёрли (Майкл Китон), который должен обучить Рэппа навыкам противодействия терроризму. В самый разгар обучения Хёрли и Рэпп вынуждены отправиться на опасное задание, их цель — найти и остановить неизвестного оперативника по прозвищу «Призрак» (Тэйлор Китч), который планирует начать Третью мировую войну на Ближнем Востоке.


    Выпущено: США, CBS Films, Di Bonaventura Pictures, Lionsgate, Nick Wechsler Productions
    Продолжительность: 01:51:38
    Перевод: Дублированный | iTunes
    Субтитры: Русские (форсированные), английские

    Файл
    Кодек: H.264
    Качество: BDRip (AVC)
    Видео: MPEG-4 AVC, 782 Кбит/с, 720x302
    Звук: Русский, английский (AAC, 2 ch, 76 Кбит/с)

    Без какой-либо рекламы
    MediaInfo
    Формат                                   : Matroska
    Версия формата                           : Version 4 / Version 2
    Размер файла                             : 747 Мбайт
    Продолжительность                        : 1 ч. 51 м.
    Общий поток                              : 936 Кбит/сек
    Название фильма                          : American.Assassin.2017.x264.BDRip.AVC.ExKinoRay
    Дата кодирования                         : UTC 2018-01-07 21:08:46
    Программа кодирования                    : mkvmerge v17.0.0 ("Be Ur Friend") 64-bit
    Библиотека кодирования                   : libebml v1.3.5 + libmatroska v1.4.8

    Видео
    Идентификатор                            : 1
    Формат                                   : AVC
    Формат/Информация                        : Advanced Video Codec
    Профиль формата                          : High@L4.1
    Параметр CABAC формата                   : Да
    Параметр ReFrames формата                : 10 кадров
    Идентификатор кодека                     : V_MPEG4/ISO/AVC
    Продолжительность                        : 1 ч. 51 м.
    Битрейт                                  : 782 Кбит/сек
    Ширина                                   : 720 пикселей
    Высота                                   : 302 пикселя
    Соотношение сторон                       : 2,40:1
    Режим частоты кадров                     : Постоянный
    Частота кадров                           : 23,976 (24000/1001) кадра/сек
    Цветовое пространство                    : YUV
    Субдискретизация насыщенности            : 4:2:0
    Битовая глубина                          : 8 бит
    Тип развёртки                            : Прогрессивная
    Бит/(Пиксели*Кадры)                      : 0.150
    Размер потока                            : 624 Мбайт (83%)
    Заголовок                                : ExKinoRay
    Библиотека кодирования                   : x264 core 152 r2851 ba24899
    Настройки программы                      : cabac=1 / ref=10 / deblock=1:-2:-2 / analyse=0x3:0x133 / me=umh / subme=11 / psy=1 / psy_rd=1.00:0.00 / mixed_ref=1 / me_range=32 / chroma_me=1 / trellis=2 / 8x8dct=1 / cqm=0 / deadzone=21,11 / fast_pskip=0 / chroma_qp_offset=-3 / threads=6 / lookahead_threads=1 / sliced_threads=0 / nr=0 / decimate=0 / interlaced=0 / bluray_compat=0 / constrained_intra=0 / bframes=10 / b_pyramid=2 / b_adapt=2 / b_bias=0 / direct=3 / weightb=1 / open_gop=0 / weightp=2 / keyint=240 / keyint_min=23 / scenecut=40 / intra_refresh=0 / rc_lookahead=40 / rc=2pass / mbtree=0 / bitrate=782 / ratetol=1.0 / qcomp=0.60 / qpmin=0 / qpmax=69 / qpstep=4 / cplxblur=20.0 / qblur=0.5 / vbv_maxrate=50000 / vbv_bufsize=62500 / nal_hrd=none / filler=0 / ip_ratio=1.40 / pb_ratio=1.30 / aq=2:1.00
    Язык                                     : English
    Default                                  : Да
    Forced                                   : Нет

    Аудио #1
    Идентификатор                            : 2
    Формат                                   : AAC
    Формат/Информация                        : Advanced Audio Codec
    Профиль формата                          : LC
    Идентификатор кодека                     : A_AAC
    Продолжительность                        : 1 ч. 51 м.
    Битрейт                                  : 76,0 Кбит/сек
    Каналы                                   : 2 канала
    Расположение каналов                     : Front: L R
    Частота                                  : 48,0 КГц
    Частота кадров                           : 46,875 кадров/сек (1024 spf)
    Метод сжатия                             : С потерями
    Задержка видео                           : 9 мс.
    Размер потока                            : 60,7 Мбайт (8%)
    Заголовок                                : iTunes
    Язык                                     : Russian
    Default                                  : Да
    Forced                                   : Нет

    Аудио #2
    Идентификатор                            : 3
    Формат                                   : AAC
    Формат/Информация                        : Advanced Audio Codec
    Профиль формата                          : LC
    Идентификатор кодека                     : A_AAC
    Продолжительность                        : 1 ч. 51 м.
    Битрейт                                  : 76,0 Кбит/сек
    Каналы                                   : 2 канала
    Расположение каналов                     : Front: L R
    Частота                                  : 48,0 КГц
    Частота кадров                           : 46,875 кадров/сек (1024 spf)
    Метод сжатия                             : С потерями
    Задержка видео                           : 9 мс.
    Размер потока                            : 60,7 Мбайт (8%)
    Язык                                     : English
    Default                                  : Нет
    Forced                                   : Нет

    Текст #1
    Идентификатор                            : 4
    Формат                                   : UTF-8
    Идентификатор кодека                     : S_TEXT/UTF8
    Идентификатор кодека/Информация          : UTF-8 Plain Text
    Продолжительность                        : 1 ч. 35 м.
    Битрейт                                  : 3 бит/сек
    Count of elements                        : 61
    Размер потока                            : 2,66 Кбайт (0%)
    Заголовок                                : форсированные
    Язык                                     : Russian
    Default                                  : Да
    Forced                                   : Нет

    Текст #2
    Идентификатор                            : 5
    Формат                                   : UTF-8
    Идентификатор кодека                     : S_TEXT/UTF8
    Идентификатор кодека/Информация          : UTF-8 Plain Text
    Продолжительность                        : 1 ч. 42 м.
    Битрейт                                  : 42 бит/сек
    Count of elements                        : 1109
    Размер потока                            : 31,6 Кбайт (0%)
    Язык                                     : English
    Default                                  : Нет
    Forced                                   : Нет

    Меню
    00:00:00.000                             : en:Chapter 01
    00:08:55.534                             : en:Chapter 02
    00:16:09.969                             : en:Chapter 03
    00:23:30.408                             : en:Chapter 04
    00:29:16.421                             : en:Chapter 05
    00:36:45.703                             : en:Chapter 06
    00:43:58.636                             : en:Chapter 07
    00:52:32.482                             : en:Chapter 08
    00:57:09.759                             : en:Chapter 09
    01:07:08.190                             : en:Chapter 10
    01:14:02.604                             : en:Chapter 11
    01:17:44.660                             : en:Chapter 12
    01:22:37.118                             : en:Chapter 13
    01:27:14.228                             : en:Chapter 14
    01:34:03.137                             : en:Chapter 15
    01:43:25.365                             : en:Chapter 16
    01:51:37.899                             : en:Chapter 17
    Свернуть


    Скриншоты
    [screen]http://lostpix.com/img/2017-12/17/a96rsqrsu0snlp2pwg93sbjvh.png[/screen][screen]http://lostpix.com/img/2017-12/17/7casci7o4p3u2tod4pqgkokm8.png[/screen]
    [screen]http://lostpix.com/img/2017-12/17/f36o6chpfkveabuvr7g1erjvi.png[/screen][screen]http://lostpix.com/img/2017-12/17/mlcfzucoyelzsbil10uwdzonh.png[/screen]  Свернуть
    Похожие раздачи Искать похожие
    Инструкция по скачиванию
     1  Качаем uTorrent версии 2.0 и выше
     2  После установки, жмем выше под постером на ссылку Скачать [MediaGet] или Скачать .torrent
     3  Открываем скачанный файл через соответствующий клиент: MediaGet или uTorrent
     4  Ждем пока подключатся участники
     5  Качаем
    Комментарии о  Наемник / American Assassin | BDRip-AVC 
    Ближайшее в кино
    Вверх