• Игры для PS4
  • Игры для PS3
  • Игры для XBOX360
  • Игры для PC
  • Игры для PS2
  • Игры для PSP
  • Для телефонов
  • Музыка
  • Книги / Журналы
  • Обои
  • Опрос
    Удобен ли сайт в использовании?
      0
    • Очень удобен, все понятно1,1,false,300,full
    • Удобен1,2,false,300,full
    • Средне1,3,false,300,full
    • Неудобен, трудно ориентироваться1,4,false,300,full
    • Совсем неудобен1,5,false,300,full
    Статистика
    Всего онлайн -
    Гостей -
    Пользователей -
    Короли трекера
    
    Благодарности () Закрыть
    Быстрее загружает сайты Экономит интернет—трафик Меняет оформление страницы ВК Блокирует всю рекламу на сайтах Загружает торренты как µTorrent клиент Объеденяет все твои чаты из соц. сетей в один Проигрывает твою музыку не заходя во ВКонтакте
    Новый интернет-браузер
    Orbitum
    Скачать
    и многое другое... Подробности на сайте производителя
    Информация о фильме
    Название: Восходящее солнце
    Оригинальное название: Rising Sun
    Год выхода: 1993
    Жанр:  Триллер, драма, криминал, детектив, экранизация
    Режиссер: Филип Кауфман

    В ролях: Шон Коннери, Уэсли Снайпс, Харви Кейтель, Кэри-Хироюки Тагава, Кевин Андерсон, Мако, Рэй Уайз, Стэн Эги, Стэн Шоу, Тиа Каррере, Стив Бушеми, Татьяна Патиц, Питер Кромби, Сэм Ллойд, Александра Пауэрс, Дэниэл фон Барген, Лоурен Робинсон, Эми Хилл, Том Дальгрен, Клайд Кусацу, Майкл Чэпмен, Джои Миясима, Тамара Тюни, Тони Гэниос, Джеймс Оливер Баллок, Майкл Кинсли, Элинор Клифт, Кларенс Пейдж, Пэт Чоут, Стивен С. Клемонс, Дэн Батлер, Тоширо Обата, Тайлин Джон, Шелли Мишель, Мишель Руис, Патриция Аямэ Томсон

    О фильме:
    Экранизация одноименного романа Майкла Крайтона. Лос-Анджелес. В небоскребе японской корпорации "Накамото", имеющей широкие деловые контакты с американской электронной компанией "Микрокон", идет деловой прием. В это время в главном конференц-зале обнаружен труп молодой женщины. Лейтенант полиции Том Грэм, приехавший на место преступления, не жалует японцев, отсюда и сложности в общении. К расследованию подключаются полицейский Веб Смит и Джо Коннер, специалист по японской культуре. Проверив систему безопасности, они обнаруживают: кассета, на которой мог быть виден убийца, подменена.



    Страна: США
    Студия: 20th Century Fox Film Corporation, Walrus & Associates
    Продолжительность: 02:09:25
    Перевод: Профессиональный многоголосый закадровый (ОРТ)

    Файл
    Кодек: MPEG-4 AVC
    Качество: BDRip-AVC [BDRemux 1080p HDclub]
    Видео:  802x434, ~1155 Кбит/с, 23.976 кадр/с
    Аудио: AC3, 48000Hz, 6ch, 448 kbps
    Субтитры: Русские, украинские, английские


    M/I
    General
    Unique ID                   : 217134749767574894752041080935664143358 (0xA35AA1B41AFAFC289AC2C1132FCD4BFE)
    Complete name               : D:Восходящее солнце.(1993).BDRIP-AVC.[-=DoMiNo=-].mkv
    Format                      : Matroska
    Format version              : Version 4 / Version 2
    File size                   : 1.45 GiB
    Duration                    : 2 h 9 min
    Overall bit rate            : 1 605 kb/s
    Movie name                  : Восходящее солнце
    Deion                 : Экранизация одноименного романа Майкла Крайтона. Лос-Анджелес. В небоскребе японской корпорации "Накамото", имеющей широкие деловые контакты с американской электронной компанией "Микрокон", идет деловой прием. В это время в главном конференц-зале обнаружен труп молодой женщины. Лейтенант полиции Том Грэм, приехавший на место преступления, не жалует японцев, отсюда и сложности в общении. К расследованию подключаются полицейский Веб Смит и Джо Коннер, специалист по японской культуре. Проверив систему безопасности, они обнаруживают: кассета, на которой мог быть виден убийца, подменена.
    Encoded date                : UTC 2018-01-08 16:35:51
    Writing application         : mkvmerge v18.0.0 ("Apricity") 64-bit
    Writing library             : libebml v1.3.5 + libmatroska v1.4.8 / Lavf57.71.100
    Attachments                 : poster.jpg / poster.jpg
    COMPOSER                    : Тору Такэмицу
    COUNTRY                     : США
    DATE                        : 1993
    DIRECTOR                    : Филип Кауфман
    ENCODING_INFO               : BluRay > MKV Пользовательский / H264 > X264 VBR-2P 1155kbps Пользовательский
    GENRE                       : боевик, триллер, драма, криминал, детектив
    HD_VIDEO                    : 1
    IMDB_RATING                 : 6.20
    ITUNEXTC                    : mpaa|R|400|
    Language                    : und
    MEDIA_TYPE                  : 9
    ORIGINAL_TITLE              : Rising Sun
    PRODUCER                    : Питер Кауфман, Йен Брайс, Шон Коннери
    RATING                      : 6.724
    WRITER                      : Майкл Крайтон, Филип Кауфман, Майкл Бэкес

    Video
    ID                          : 1
    Format                      : AVC
    Format/Info                 : Advanced Video Codec
    Format profile              : High@L4.1
    Format settings             : CABAC / 10 Ref Frames
    Format settings, CABAC      : Yes
    Format settings, ReFrames   : 10 frames
    Codec ID                    : V_MPEG4/ISO/AVC
    Duration                    : 2 h 9 min
    Bit rate                    : 1 155 kb/s
    Width                       : 802 pixels
    Height                      : 434 pixels
    Display aspect ratio        : 1.85:1
    Frame rate mode             : Constant
    Frame rate                  : 23.976 (24000/1001) FPS
    Color space                 : YUV
    Chroma subsampling          : 4:2:0
    Bit depth                   : 8 bits
    Scan type                   : Progressive
    Bits/(Pixel*Frame)          : 0.138
    Stream size                 : 1.04 GiB (72%)
    Title                       : RIP_BY_-=DoMiNo=-
    Writing library             : x264 core 155 r2893M b00bcaf
    Encoding settings           : cabac=1 / ref=10 / deblock=1:-3:-3 / analyse=0x3:0x133 / me=umh / subme=10 / psy=1 / psy_rd=1.00:0.05 / mixed_ref=1 / me_range=32 / chroma_me=1 / trellis=2 / 8x8dct=1 / cqm=0 / deadzone=21,11 / fast_pskip=1 / chroma_qp_offset=-3 / threads=6 / lookahead_threads=1 / sliced_threads=0 / nr=0 / decimate=1 / interlaced=0 / bluray_compat=0 / constrained_intra=0 / bframes=9 / b_pyramid=2 / b_adapt=2 / b_bias=0 / direct=3 / weightb=1 / open_gop=0 / weightp=2 / keyint=240 / keyint_min=24 / scenecut=40 / intra_refresh=0 / rc_lookahead=60 / rc=2pass / mbtree=1 / bitrate=1155 / ratetol=1.0 / qcomp=0.60 / qpmin=0 / qpmax=69 / qpstep=4 / cplxblur=20.0 / qblur=0.5 / ip_ratio=1.40 / aq=1:1.00
    Language                    : English
    Default                     : Yes
    Forced                      : No

    Audio
    ID                          : 2
    Format                      : AC-3
    Format/Info                 : Audio Coding 3
    Codec ID                    : A_AC3
    Duration                    : 2 h 9 min
    Bit rate mode               : Constant
    Bit rate                    : 448 kb/s
    Channel(s)                  : 6 channels
    Channel positions           : Front: L C R, Side: L R, LFE
    Sampling rate               : 48.0 kHz
    Frame rate                  : 31.250 FPS (1536 SPF)
    Bit depth                   : 16 bits
    Compression mode            : Lossy
    Stream size                 : 415 MiB (28%)
    Title                       : MVO_ORT
    Language                    : Russian
    Service kind                : Complete Main
    Default                     : Yes
    Forced                      : No

    Text #1
    ID                          : 3
    Format                      : UTF-8
    Codec ID                    : S_TEXT/UTF8
    Codec ID/Info               : UTF-8 Plain Text
    Duration                    : 1 h 30 min
    Bit rate                    : 0 b/s
    Count of elements           : 5
    Stream size                 : 286 Bytes (0%)
    Title                       : RUS_Forsed
    Language                    : Russian
    Default                     : Yes
    Forced                      : No

    Text #2
    ID                          : 4
    Format                      : UTF-8
    Codec ID                    : S_TEXT/UTF8
    Codec ID/Info               : UTF-8 Plain Text
    Duration                    : 2 h 5 min
    Bit rate                    : 92 b/s
    Count of elements           : 1626
    Stream size                 : 85.3 KiB (0%)
    Title                       : RUS
    Language                    : Russian
    Default                     : No
    Forced                      : No

    Text #3
    ID                          : 5
    Format                      : UTF-8
    Codec ID                    : S_TEXT/UTF8
    Codec ID/Info               : UTF-8 Plain Text
    Duration                    : 2 h 5 min
    Bit rate                    : 91 b/s
    Count of elements           : 1626
    Stream size                 : 83.8 KiB (0%)
    Title                       : UKR
    Language                    : Ukrainian
    Default                     : No
    Forced                      : No

    Text #4
    ID                          : 6
    Format                      : UTF-8
    Codec ID                    : S_TEXT/UTF8
    Codec ID/Info               : UTF-8 Plain Text
    Duration                    : 2 h 4 min
    Bit rate                    : 64 b/s
    Count of elements           : 1725
    Stream size                 : 58.9 KiB (0%)
    Title                       : ENG
    Language                    : English
    Default                     : No
    Forced                      : No

    Menu
    00:00:00.000                : :Глава 1
    00:03:38.551                : :Глава 2
    00:07:35.454                : :Глава 3
    00:11:46.539                : :Глава 4
    00:14:37.459                : :Глава 5
    00:20:42.657                : :Глава 6
    00:28:36.923                : :Глава 7
    00:35:45.810                : :Глава 8
    00:44:24.661                : :Глава 9
    00:49:17.329                : :Глава 10
    00:55:10.807                : :Глава 11
    01:00:53.357                : :Глава 12
    01:06:52.550                : :Глава 13
    01:12:10.325                : :Глава 14
    01:15:29.733                : :Глава 15
    01:19:04.656                : :Глава 16
    01:22:35.533                : :Глава 17
    01:25:43.388                : :Глава 18
    01:31:25.688                : :Глава 19
    01:35:29.055                : :Глава 20
    01:40:07.793                : :Глава 21
    01:46:27.297                : :Глава 22
    01:50:27.954                : :Глава 23
    01:52:14.352                : :Глава 24
    02:00:03.821                : :Глава 25
    02:05:44.078                : :Глава 26
    02:09:24.756                : :Глава 27Свернуть


    Скриншоты
    [screen]http://i6.imageban.ru/out/2018/01/08/36b2908171ce2fea19d0595d99cc7b2e.png[/screen][screen]http://i6.imageban.ru/out/2018/01/08/c9f104e3ea4596d0b1a45f88b6687926.png[/screen][screen]http://i3.imageban.ru/out/2018/01/08/1a839bc50f0b42e8a554ef9c88c6de8c.png[/screen][screen]http://i3.imageban.ru/out/2018/01/08/6debfd673a76decbdc6d8b29cf15b49c.png[/screen][screen]http://i3.imageban.ru/out/2018/01/08/3cbab418b612b51dd0d58a9627c098fd.png[/screen][screen]http://i6.imageban.ru/out/2018/01/08/29307feac6ed5c2b374157d088237b39.png[/screen][screen]http://i5.imageban.ru/out/2018/01/08/78100223f3e3769170cfab95a2fb3201.png[/screen][screen]http://i3.imageban.ru/out/2018/01/08/6125ee96e0899984433549adba3ff2f8.png[/screen][screen]http://i6.imageban.ru/out/2018/01/08/791c0eb644288b1c326034b672f4ab0f.png[/screen][screen]http://i5.imageban.ru/out/2018/01/08/065b05cae09148c00d582362db6a644d.png[/screen][screen]http://i3.imageban.ru/out/2018/01/08/340b63d027bf305e9ffb1325506e50e5.png[/screen][screen]http://i5.imageban.ru/out/2018/01/08/44d91d1493b8ed85f80ecd96de1463f0.png[/screen][screen]http://i3.imageban.ru/out/2018/01/08/17e0363a9204848acf128a3abf69db65.png[/screen]Свернуть
    Похожие раздачи Искать похожие
    Инструкция по скачиванию
     1  Качаем uTorrent версии 2.0 и выше
     2  После установки, жмем выше под постером на ссылку Скачать [MediaGet] или Скачать .torrent
     3  Открываем скачанный файл через соответствующий клиент: MediaGet или uTorrent
     4  Ждем пока подключатся участники
     5  Качаем
    Комментарии о  Восходящее солнце / Rising Sun | BDRip-AVC 
    Ближайшее в кино
    Вверх