• Игры для PS4
  • Игры для PS3
  • Игры для XBOX360
  • Игры для PC
  • Игры для PS2
  • Игры для PSP
  • Для телефонов
  • Музыка
  • Книги / Журналы
  • Обои
  • Опрос
    Удобен ли сайт в использовании?
      0
    • Очень удобен, все понятно1,1,false,300,full
    • Удобен1,2,false,300,full
    • Средне1,3,false,300,full
    • Неудобен, трудно ориентироваться1,4,false,300,full
    • Совсем неудобен1,5,false,300,full
    Статистика
    Всего онлайн -
    Гостей -
    Пользователей -
    Короли трекера
    
    Благодарности () Закрыть
    Быстрее загружает сайты Экономит интернет—трафик Меняет оформление страницы ВК Блокирует всю рекламу на сайтах Загружает торренты как µTorrent клиент Объеденяет все твои чаты из соц. сетей в один Проигрывает твою музыку не заходя во ВКонтакте
    Новый интернет-браузер
    Orbitum
    Скачать
    и многое другое... Подробности на сайте производителя
    Информация о фильме
    Название: Охотники за караванами
    Год выхода: 2010
    Жанр:  Военный, драма
    Режиссер: Сергей Чекалов
    В ролях: Алексей Серебряков, Андрей Саминин, Алексей Лонгин, Всеволод Хованский, Карина Андоленко, Евгения Лютая, Владимир Смирнов, Михаил Тарабукин, Иван Шибанов, Никита Емшанов, Игорь Миркурбано

    О фильме: Афганистан, 1987 год. Появившиися у моджахедов переносные зенитные комплексы "Стингер" грозят положить конец господству в воздухе советской авиации. Командир разведбата майор Оковалков получает задание добыть образец этого нового оружия. Для этого ему необходимо захватить небольшой караван. Однако караван оказывается огромным, с хорошо вооруженной охраной. Поняв, что операция провалена, Оковалко принимает решение переждать прохождение колонны и вернуться в часть, но его планы нарушает автоматная очередь, случайно выпущенная молодым неопытным солдатом...

    [img]http://i48.fastpic.ru/big/2013/0510/bb/3b1402464a3f305aa0536786b77f41bb.png[/img]

    Страна: Россия
    Студия: 4К по заказу Star Media
    Продолжительность: 03:03:43
    Перевод: Не требуется (оригинальный, русский)

    Файл
    Формат: avi
    Качество: HDTVRip (HDTV.1080)
    Видео: XviD, 656x368, 25fps, 1000kbps
    Аудио: MPEG Layer 3, 2ch, 48000Hz, 128kbps

    [img]http://i040.radikal.ru/0908/29/bc9c8e521fcb.gif[/img]

    MediaInfo

    Общее
    Полное имя                               : Ohotniki.Za.Karavanami.2010.O.HDTVRip.1400.CurHaJI.avi
    Формат                                   : AVI
    Формат/Информация                        : Audio Video Interleave
    Размер файла                             : 1,46 Гбайт
    Продолжительность                        : 3 ч. 3 м.
    Общий поток                              : 1138 Кбит/сек
    Название фильма                          : Ohotniki.Za.Karavanami.2010.O.HDTVRip.1400.CurHaJI
    Программа кодирования                    : VirtualDubMod 1.5.10.3 | www.virtualdub-fr.org || (build 2550/release)
    Библиотека кодирования                   : VirtualDub build 35491/release

    Видео
    Идентификатор                            : 0
    Формат                                   : MPEG-4 Visual
    Профиль формата                          : Advanced Simple@L5
    Параметр BVOP формата                    : 1
    Параметр QPel формата                    : Нет
    Параметр GMC формата                     : Без точки перехода
    Параметр матрицы формата                 : Выборочная
    Идентификатор кодека                     : XVID
    Идентификатор кодека/Подсказка           : XviD
    Продолжительность                        : 3 ч. 3 м.
    Битрейт                                  : 1000 Кбит/сек
    Ширина                                   : 656 пикселей
    Высота                                   : 368 пикселей
    Соотношение сторон                       : 16:9
    Частота кадров                           : 25,000 кадров/сек
    Цветовое пространство                    : YUV
    Субдискретизация насыщенности            : 4:2:0
    Битовая глубина                          : 8 бит
    Тип развёртки                            : Прогрессивная
    Метод сжатия                             : С потерями
    Бит/(Пиксели*Кадры)                      : 0.166
    Размер потока                            : 1,28 Гбайт (88%)
    Библиотека кодирования                   : XviD 73

    Аудио
    Идентификатор                            : 1
    Формат                                   : MPEG Audio
    Версия формата                           : Version 1
    Профиль формата                          : Layer 3
    Идентификатор кодека                     : 55
    Идентификатор кодека/Подсказка           : MP3
    Продолжительность                        : 3 ч. 3 м.
    Вид битрейта                             : Постоянный
    Битрейт                                  : 128 Кбит/сек
    Каналы                                   : 2 канала
    Частота                                  : 48,0 КГц
    Метод сжатия                             : С потерями
    Размер потока                            : 168 Мбайт (11%)
    Выравнивание                             : Соединение по промежуткам
    Продолжительность промежутка             : 40  мс. (1,00 видеокадр)
    Время предзагрузки промежутка            : 504  мс.
    Библиотека кодирования                   : LAME3.99r
    Настройки программы                      : -m s -V 4 -q 2 -lowpass 17 -b 128
    Свернуть


    Скриншоты

    [screen]http://i103.fastpic.ru/big/2018/0108/1c/475d0ddc6444b3fa6a7831e0a944f21c.png[/screen][screen]http://i103.fastpic.ru/big/2018/0108/96/08ee77582311d1942b1c37fd1b23cf96.png[/screen][screen]http://i103.fastpic.ru/big/2018/0108/8a/2f332ab07e857ca4adf487e08981b28a.png[/screen][screen]http://i103.fastpic.ru/big/2018/0108/f9/fbac92af146b5b2d37919166c6e434f9.png[/screen]
    Свернуть
    Инструкция по скачиванию
     1  Качаем uTorrent версии 2.0 и выше
     2  После установки, жмем выше под постером на ссылку Скачать [MediaGet] или Скачать .torrent
     3  Открываем скачанный файл через соответствующий клиент: MediaGet или uTorrent
     4  Ждем пока подключатся участники
     5  Качаем
    Комментарии о  Охотники за караванами | HDTVRip 
    Ближайшее в кино
    Вверх