• Игры для PS4
  • Игры для PS3
  • Игры для XBOX360
  • Игры для PC
  • Игры для PS2
  • Игры для PSP
  • Для телефонов
  • Музыка
  • Книги / Журналы
  • Обои
  • Опрос
    Откуда Вы о нас узнали?
      0
    • От знакомых2,1,false,300,full
    • Из социальных сетей2,2,false,300,full
    • Из поисковых систем2,3,false,300,full
    • Другое2,4,false,300,full
    Статистика
    Всего онлайн -
    Гостей -
    Пользователей -
    Короли трекера
    
    Благодарности () Закрыть
    Быстрее загружает сайты Экономит интернет—трафик Меняет оформление страницы ВК Блокирует всю рекламу на сайтах Загружает торренты как µTorrent клиент Объеденяет все твои чаты из соц. сетей в один Проигрывает твою музыку не заходя во ВКонтакте
    Новый интернет-браузер
    Оrbitum
    Скачать
    и многое другое... Подробности на сайте производителя
    Информация о фильме
    Название: Стальные руки
    Оригинальное название: Vendetta dal futuro / Hands of Steel
    Год выхода: 1986
    Жанр: фантастика, боевик
    Режиссер: Серджо Мартино
    В ролях: Дэниэл Грин, Джанет Агрен, Клаудио Кассинелли, Джордж Истмен, Джон Сэксон, Роберто Бизакко, Пэт Монти, Андреа Коппола, Дональд О’Брайэн, Дарвин Суальве, Эми Верба

    О фильме:
    В недалеком будущем Земля окажется на грани экологической катастрофы, а могущественные транснациональные корпорации продолжают загрязнять окружающую среду. Против них восстает движение «зеленых» во главе с Артуром Мозели. Тогда глава одной из корпораций, Френсис Тёрнер, создает киборга из попавшего в аварию человека по имени Пако. Его задача — убить Артура. Но в момент убийства человеческая сущность Пако берет вверх над программой, и он оставляет Мозели в живых. Скрываясь от полиции и людей Тёрнера, Пако едет в Аризону, где останавливается в маленькой гостинице, очаровательная владелица которой предоставляет ему убежище. Но бандиты и полиция уже вышли на след беглеца…


    Страна: Италия
    Продолжительность: 01:33:07
    Перевод: Любительский (одноголосый закадровый)
    Оригинальная аудиодорожка: английская

    Файл
    Кодек: x264
    Качество: BDRip 1080p | Hands.Of.Steel.1986.1080p.BluRay.x264-RedBlade
    Видео: MPEG-4 AVC, 1808x1080p (16:9), 23.976 fps, 12700 kbps
    Аудио 1: русский / AC3 / 2.0 / 48 kHz / 192 kbps / 16 bit || RUS
    Аудио 2: английский / FLAC / 2.0 / 48 kHz / ~734 kbps / 24 bits || ENG
    Субтитры: русские и португальские

    MI
    General
    Unique ID : 175905261704863911679422589776745532501 (0x84561EFFB4C9F8C2828BEF7AED3D0C55)
    Complete name : Hands Of Steel.1986.BDRip.1080p.Rus.Eng.Subs.Chpt.mkv
    Format : Matroska
    Format version : Version 4 / Version 2
    File size : 8.87 GiB
    Duration : 1 h 33 min
    Overall bit rate mode : Variable
    Overall bit rate : 13.6 Mb/s
    Movie name : Hands Of Steel.BDRip 1080p
    Encoded date : UTC 2018-01-07 13:02:23
    Writing application : mkvmerge v8.5.2 ("Crosses") 64bit
    Writing library : libebml v1.3.3 + libmatroska v1.4.4

    Video
    ID : 1
    Format : AVC
    Format/Info : Advanced Video Codec
    Format profile : High@L4.1
    Format settings : CABAC / 4 Ref Frames
    Format settings, CABAC : Yes
    Format settings, RefFrames : 4 frames
    Codec ID : V_MPEG4/ISO/AVC
    Duration : 1 h 33 min
    Bit rate : 12.7 Mb/s
    Width : 1 808 pixels
    Height : 1 080 pixels
    Display aspect ratio : 5:3
    Frame rate mode : Constant
    Frame rate : 23.976 (24000/1001) FPS
    Color space : YUV
    Chroma subsampling : 4:2:0
    Bit depth : 8 bits
    Scan type : Progressive
    Bits/(Pixel*Frame) : 0.272
    Stream size : 8.27 GiB (93%)
    Title : Hands Of Steel.BDRip 1080p
    Writing library : x264 core 148 r2744 b97ae06
    Encoding settings : cabac=1 / ref=4 / deblock=1:-3:-3 / analyse=0x3:0x113 / me=umh / subme=8 / psy=1 / psy_rd=1.00:0.00 / mixed_ref=1 / me_range=16 / chroma_me=1 / trellis=1 / 8x8dct=1 / cqm=0 / deadzone=21,11 / fast_pskip=1 / chroma_qp_offset=-2 / threads=6 / lookahead_threads=1 / sliced_threads=0 / nr=0 / decimate=1 / interlaced=0 / bluray_compat=0 / constrained_intra=0 / bframes=3 / b_pyramid=2 / b_adapt=2 / b_bias=0 / direct=3 / weightb=1 / open_gop=0 / weightp=2 / keyint=240 / keyint_min=24 / scenecut=40 / intra_refresh=0 / rc_lookahead=50 / rc=2pass / mbtree=1 / bitrate=12718 / ratetol=1.0 / qcomp=0.60 / qpmin=0 / qpmax=69 / qpstep=4 / cplxblur=20.0 / qblur=0.5 / vbv_maxrate=62500 / vbv_bufsize=78125 / nal_hrd=none / filler=0 / ip_ratio=1.40 / aq=1:1.00
    Language : English
    Default : Yes
    Forced : No

    Audio #1
    ID : 2
    Format : AC-3
    Format/Info : Audio Coding 3
    Format settings, Endianness : Big
    Codec ID : A_AC3
    Duration : 1 h 33 min
    Bit rate mode : Constant
    Bit rate : 192 kb/s
    Channel(s) : 2 channels
    Channel positions : Front: L R
    Sampling rate : 48.0 kHz
    Frame rate : 31.250 FPS (1536 SPF)
    Bit depth : 16 bits
    Compression mode : Lossy
    Stream size : 128 MiB (1%)
    Title : VO (allecs2010)
    Language : Russian
    Service kind : Complete Main
    Default : Yes
    Forced : No

    Audio #2
    ID : 3
    Format : FLAC
    Format/Info : Free Lossless Audio Codec
    Codec ID : A_FLAC
    Duration : 1 h 33 min
    Bit rate mode : Variable
    Bit rate : 734 kb/s
    Channel(s) : 2 channels
    Channel positions : Front: L R
    Sampling rate : 48.0 kHz
    Frame rate : 11.719 FPS (4096 SPF)
    Bit depth : 24 bits
    Stream size : 488 MiB (5%)
    Title : Original
    Writing library : libFLAC 1.2.1 (UTC 2007-09-17)
    Language : English
    Default : No
    Forced : No

    Text #1
    ID : 4
    Format : UTF-8
    Codec ID : S_TEXT/UTF8
    Codec ID/Info : UTF-8 Plain Text
    Duration : 1 h 32 min
    Bit rate : 84 b/s
    Count of elements : 879
    Stream size : 57.0 KiB (0%)
    Title : Full (allecs2010)
    Language : Russian
    Default : No
    Forced : No

    Text #2
    ID : 5
    Format : UTF-8
    Codec ID : S_TEXT/UTF8
    Codec ID/Info : UTF-8 Plain Text
    Duration : 1 h 31 min
    Bit rate : 41 b/s
    Count of elements : 863
    Stream size : 28.3 KiB (0%)
    Title : Full
    Language : Portuguese
    Default : No
    Forced : No

    Menu
    00:00:00.000 : en:00:00:00.000
    00:12:01.679 : en:00:12:01.679
    00:24:29.301 : en:00:24:29.301
    00:36:55.338 : en:00:36:55.338
    00:50:31.195 : en:00:50:31.195
    01:03:28.972 : en:01:03:28.972
    01:15:20.891 : en:01:15:20.891
    01:23:32.132 : en:01:23:32.132Свернуть


    Скриншоты
    [screen]http://i103.fastpic.ru/big/2018/0107/34/ad0484dc1bf2b4fb3beb267b7e168e34.png[/screen][screen]http://i103.fastpic.ru/big/2018/0107/d8/80647621750fc32472db1ccaec5abad8.png[/screen][screen]http://i103.fastpic.ru/big/2018/0107/86/1a0aa444768c6b6c447a3fb5997d7786.png[/screen]Свернуть
    Похожие раздачи Искать похожие
    Инструкция по скачиванию
     1  Качаем uTorrent версии 2.0 и выше
     2  После установки, жмем выше под постером на ссылку Скачать [MediaGet] или Скачать .torrent
     3  Открываем скачанный файл через соответствующий клиент: MediaGet или uTorrent
     4  Ждем пока подключатся участники
     5  Качаем
    Комментарии о  Стальные руки / Vendetta dal futuro | BDRip 1080p 
    Ближайшее в кино
    Вверх