• Игры для PS4
  • Игры для PS3
  • Игры для XBOX360
  • Игры для PC
  • Игры для PS2
  • Игры для PSP
  • Для телефонов
  • Музыка
  • Книги / Журналы
  • Обои
  • Опрос
    Откуда Вы о нас узнали?
      0
    • От знакомых2,1,false,300,full
    • Из социальных сетей2,2,false,300,full
    • Из поисковых систем2,3,false,300,full
    • Другое2,4,false,300,full
    Статистика
    Всего онлайн -
    Гостей -
    Пользователей -
    Короли трекера
    
    Благодарности () Закрыть
    Быстрее загружает сайты Экономит интернет—трафик Меняет оформление страницы ВК Блокирует всю рекламу на сайтах Загружает торренты как µTorrent клиент Объеденяет все твои чаты из соц. сетей в один Проигрывает твою музыку не заходя во ВКонтакте
    Новый интернет-браузер
    Оrbitum
    Скачать
    и многое другое... Подробности на сайте производителя
    Исполнитель/Группа: Наташа Ранголи и группа Леди
    Жанр:  POP
    Год выпуска: 2016
    Продолжительность: 00:18:28

    Наташа Ранголи-вокал
    Сергей Ворожбит-руководитель, клавишные, гитара
    DJ Катя-клавишные


    Формат: MKV
    Качество: CAMRip 720p
    Видео кодек: H.264
    Аудио кодек: AAC
    Видео: H.264, ~4 300 Kbps, 1280 x 720 (16:9), 30 fps
    Аудио: AAC, 48000Hz, 2ch, 192 kbps
    Треклист
    1.На дискотеке
    2.Снежный мальчик
    3.Где же лето?
    4.Октябрьский вечер(музыка и слова Сергея Воронкова)
    5.Южный городСвернуть


    MedaInfo
    Complete name               : D:Rangoli_2016.mkv
    Format                      : Matroska
    Format version              : Version 4 / Version 2
    File size                   : 591 MiB
    Duration                    : 18 min 28 s
    Overall bit rate            : 4 471 kb/s
    Encoded date                : UTC 2018-01-08 22:46:04
    Writing application         : mkvmerge v8.3.0 ("Over the Horizon") 64bit
    Writing library             : libebml v1.3.1 + libmatroska v1.4.2

    Video
    ID                          : 1
    Format                      : AVC
    Format/Info                 : Advanced Video Codec
    Format profile              : Main@L4.1
    Format settings, CABAC      : Yes
    Format settings, ReFrames   : 4 frames
    Codec ID                    : V_MPEG4/ISO/AVC
    Duration                    : 18 min 28 s
    Bit rate                    : 4 279 kb/s
    Width                       : 1 280 pixels
    Height                      : 720 pixels
    Display aspect ratio        : 16:9
    Frame rate mode             : Constant
    Frame rate                  : 30.000 FPS
    Standard                    : NTSC
    Color space                 : YUV
    Chroma subsampling          : 4:2:0
    Bit depth                   : 8 bits
    Scan type                   : Progressive
    Bits/(Pixel*Frame)          : 0.155
    Stream size                 : 566 MiB (96%)
    Language                    : English
    Default                     : Yes
    Forced                      : No
    Color range                 : Limited
    Color primaries             : BT.709
    Transfer characteristics    : BT.709
    Matrix coefficients         : BT.709

    Audio
    ID                          : 2
    Format                      : AAC
    Format/Info                 : Advanced Audio Codec
    Format profile              : LC
    Codec ID                    : A_AAC
    Duration                    : 18 min 28 s
    Bit rate                    : 192 kb/s
    Channel(s)                  : 2 channels
    Channel positions           : Front: L R
    Sampling rate               : 48.0 kHz
    Frame rate                  : 46.875 FPS (1024 spf)
    Compression mode            : Lossy
    Stream size                 : 25.0 MiB (4%)
    Language                    : English
    Default                     : Yes
    Forced                      : No

    Свернуть


    Похожие раздачи Искать похожие
    Инструкция по скачиванию
     1  Качаем uTorrent версии 2.0 и выше
     2  После установки, жмем выше под постером на ссылку Скачать [MediaGet] или Скачать .torrent
     3  Открываем скачанный файл через соответствующий клиент: MediaGet или uTorrent
     4  Ждем пока подключатся участники
     5  Качаем
    Комментарии о  Наташа Ранголи и группа Леди - Выступление в городе Шаховская 
    Ближайшее в кино
    Вверх