• Игры для PS4
  • Игры для PS3
  • Игры для XBOX360
  • Игры для PC
  • Игры для PS2
  • Игры для PSP
  • Для телефонов
  • Музыка
  • Книги / Журналы
  • Обои
  • Опрос
    Удобен ли сайт в использовании?
      0
    • Очень удобен, все понятно1,1,false,300,full
    • Удобен1,2,false,300,full
    • Средне1,3,false,300,full
    • Неудобен, трудно ориентироваться1,4,false,300,full
    • Совсем неудобен1,5,false,300,full
    Статистика
    Всего онлайн -
    Гостей -
    Пользователей -
    Короли трекера
    Благодарности () Закрыть
    Проект «Наци»: Дьявольский замысел / Project Nazi: Blueprints of Evil

    Страна: Великобритания [img]http://st.kp.yandex.net/images/flags/flag-11.gif[/img]
    Производство: Midnight Oil Pictures
    Год выпуска: 2017
    Жанр:  документальный, военный, история
    Продолжительность: х ~00:52:00

    Режиссер: Билл Томас

    В ролях: Майк Фордхэм, Анке Люддек, Алекс Сиборн

    Описание: Идея величия и процветания новой Германии стоила более 50 миллионов жизней и попытки уничтожить целый мир. Сериал предлагает окунуться в дьявольский план самого страшного режима в истории. Как немцев соблазнила идеология нацизма с помощью выдающихся планов, отличной подготовки и коварной пропаганды...

    [img]http://imdb.snick.ru/ratefor/02/tt6926044.png[/img]

    Перевод: Профессиональный (одноголосый, закадровый)
    Субтитры: нет

    Качество: HDTVRip
    Формат: AVI
    Видео кодек: XviD
    Аудио кодек: AС3
    Видео: 720x400 (16:9), 25.000 fps, XviD build 73 ~1 900 kbps avg
    Аудио: 48.0 kHz, AC3 Dolby Digital, 2/0 (L,R) ch, ~192 kbps | RUS

    Дата премьеры (мир): 9 августа 2017

    Media Info
    General
    Формат                                   : AVI
    Формат/Информация                        : Audio Video Interleave
    Размер файла                             : 785 Мбайт
    Продолжительность                        : 52 м.
    Общий поток                              : 2102 Кбит/сек
    Программа кодирования                    : VirtualDubMod 1.5.10.3 | (build 2550/release)
    Библиотека кодирования                   : VirtualDubMod build 2550/release

    Видео
    Идентификатор                            : 0
    Формат                                   : MPEG-4 Visual
    Профиль формата                          : Advanced Simple@L5
    Параметр BVOP формата                    : 2
    Параметр QPel формата                    : Нет
    Параметр GMC формата                     : Без точки перехода
    Параметр матрицы формата                 : Default (MPEG)
    Идентификатор кодека                     : XVID
    Идентификатор кодека/Подсказка           : XviD
    Продолжительность                        : 52 м.
    Битрейт                                  : 1900 Кбит/сек
    Ширина                                   : 720 пикселей
    Высота                                   : 400 пикселей
    Соотношение сторон                       : 16:9
    Частота кадров                           : 25,000 кадров/сек
    Цветовое пространство                    : YUV
    Субдискретизация насыщенности            : 4:2:0
    Битовая глубина                          : 8 бит
    Тип развёртки                            : Прогрессивная
    Метод сжатия                             : С потерями
    Бит/(Пиксели*Кадры)                      : 0.264
    Размер потока                            : 710 Мбайт (90%)
    Библиотека кодирования                   : XviD 73

    Аудио
    Идентификатор                            : 1
    Формат                                   : AC-3
    Формат/Информация                        : Audio Coding 3
    Расширение режима                        : CM (complete main)
    Параметр Endianness формата              : Big
    Идентификатор кодека                     : 2000
    Продолжительность                        : 52 м.
    Вид битрейта                             : Постоянный
    Битрейт                                  : 192 Кбит/сек
    Каналы                                   : 2 канала
    Расположение каналов                     : Front: L R
    Частота                                  : 48,0 КГц
    Битовая глубина                          : 16 бит
    Метод сжатия                             : С потерями
    Размер потока                            : 71,7 Мбайт (9%)
    Выравнивание                             : Разделение по промежуткам
    Продолжительность промежутка             : 40  мс. (1,00 видеокадр)
    Время предзагрузки промежутка            : 500  мс.Свернуть


    Похожие раздачи Искать похожие
    Инструкция по скачиванию
     1  Качаем uTorrent версии 2.0 и выше
     2  После установки, жмем выше под постером на ссылку Скачать [MediaGet] или Скачать .torrent
     3  Открываем скачанный файл через соответствующий клиент: MediaGet или uTorrent
     4  Ждем пока подключатся участники
     5  Качаем
    Комментарии о  Viasat History. Проект «Наци»: Дьявольский замысел / Project Nazi: Blueprints of Evil [Серии 01-06 из 06] | HDTVRip 
    Ближайшее в кино
    Вверх