• Игры для PS3
  • Игры для XBOX360
  • Игры для PC
  • Игры для PS2
  • Игры для PSP
  • Для телефонов
  • Музыка
  • Книги/Журналы
  • Обои
  •  
    Опрос
    Откуда Вы о нас узнали?
      0
    • От знакомых2,1,false,300,full
    • Из социальных сетей2,2,false,300,full
    • Из поисковых систем2,3,false,300,full
    • Другое2,4,false,300,full
    Статистика
    Загрузка...
    Удивительная миссис Мейзел / The Marvelous Mrs. Maisel [Сезон 01 | 01-06 серии из 08] | WEBRip 1080p
    Статус  Проверено
    В закладки
    Модератор: Max

    Удивительная миссис Мейзел / The Marvelous Mrs. Maisel [Сезон 01 | 01-06 серии из 08] | WEBRip 1080p [Сериалы 2017] скачать торрентом/torrent бесплатно

    Год выхода
    Категории
    Язык
    Закачал
    Аноним | 11 января 2018 в 13ч 55м 38с
    Раздел
    Отзывов
    0
    Раздают: 8 Качают: 8 Скачали: 14 Размер: 16.59 GB
    Файлы (6) | Благодарности | Хэш код |
    0/5
    0
    Поддержи нас — расскажи друзьям!
    Orbitum
    Новый интернет-браузер Быстрее загружает сайты Экономит интернет—трафик Меняет оформление страницы ВК Блокирует всю рекламу на сайтах Загружает торренты как

    µTorrent

    клиент
    Объеденяет все твои чаты из соц. сетей в один Проигрывает твою музыку не заходя во ВКонтакте
    Скачать и многое другое... Подробности на сайте производителя
    Удивительная миссис Мейзел / Невероятная миссис Мэйзел / The Marvelous Mrs. Maisel

    Страна: США [img]http://st.kp.yandex.net/images/flags/flag-1.gif[/img]
    Производство: Amazon Studios, Picrow
    Год выпуска: 2017
    Сезон: 1
    Жанр:  драма, комедия
    Продолжительность: х ~00:56:00

    Режиссеры: Эми Шерман-Палладино, Дэниэл Палладино, Скотт Эллис
    Авторы сценария: Эми Шерман-Палладино, Дэниэл Палладино, Шила Р. Лоуренс

    В ролях: Рэйчел Броснахэн, Алекс Борштейн, Майкл Зеген, Марин Хинкль, Тони Шэлуб, Бейли Де Янг, Матильда Дауни, Брайан Тарантина

    Описание: Действие разворачивается в Нью-Йорке 1958 года. В основе сюжета лежит история «примерной домохозяйки» Мириам Майзел, которая внезапно обнаруживает у себя скрытый талант к стендапу...



    Перевод: Любительский (многоголосый, закадровый) | Ozz-tv
    Роли озвучивают: Маргарита Корш, Иван Кузнецов и Алексей Серегин
    Субтитры: английские, русские

    Качество: WEBRip 1080р
    Формат: МКV
    Видео кодек: AVC
    Аудио кодек: АС3
    Видео: 1920x1080 (16:9), 23.976 fps, MPEG-4 AVC ~7 618 kbps avg
    Аудио №1: 48.0 kHz, AC3 Dolby Digital, 2/0 (L,R) ch, ~192 kbps | RUS / Ozz-tv
    Аудио №2: 48.0 kHz, AC3 Dolby Digital, 3/2 (L,C,R,l,r) + LFE ch, ~640 kbps | ENG
    Формат субтитров: UTF-8 Plain Text

    Дата премьеры (мир): 16 марта 2017

    [img]http://s017.radikal.ru/i427/1609/a3/d54ac8556bbd.gif[/img]

    Media Info
    General
    Уникальный идентификатор                 : 183146231661460930209856856495574139188 (0x89C8AE618A59F6B680CD42B3E012C134)
    Полное имя                               : The.Marvelous.Mrs.Maisel.S01E01.1080p.WEBRip.Rus.Eng.Ozz.mkv
    Формат                                   : Matroska
    Версия формата                           : Version 4 / Version 2
    Размер файла                             : 3,42 Гбайт
    Продолжительность                        : 56 м.
    Режим общего битрейта                    : Переменный
    Общий поток                              : 8622 Кбит/сек
    Дата кодирования                         : UTC 2017-12-08 12:43:08
    Программа кодирования                    : mkvmerge v6.3.0 ("You can"t stop me!") built on Jun 28 2013 20:09:41
    Библиотека кодирования                   : libebml v1.3.0 + libmatroska v1.4.0

    Видео
    Идентификатор                            : 1
    Формат                                   : AVC
    Формат/Информация                        : Advanced Video Codec
    Профиль формата                          : High@L4.0
    Параметр CABAC формата                   : Да
    Параметр ReFrames формата                : 4 кадра
    Идентификатор кодека                     : V_MPEG4/ISO/AVC
    Продолжительность                        : 56 м.
    Вид битрейта                             : Переменный
    Битрейт                                  : 7618 Кбит/сек
    Максимальный битрейт                     : 15,0 Мбит/сек
    Ширина                                   : 1920 пикселей
    Высота                                   : 1080 пикселей
    Соотношение сторон                       : 16:9
    Режим частоты кадров                     : Постоянный
    Частота кадров                           : 23,976 кадра/сек
    Цветовое пространство                    : YUV
    Субдискретизация насыщенности            : 4:2:0
    Битовая глубина                          : 8 бит
    Тип развёртки                            : Прогрессивная
    Бит/(Пиксели*Кадры)                      : 0.153
    Размер потока                            : 3,03 Гбайт (88%)
    Default                                  : Да
    Forced                                   : Нет
    Основные цвета                           : BT.709
    Характеристики трансфера                 : BT.709
    Коэффициенты матрицы                     : BT.709

    Аудио #1
    Идентификатор                            : 2
    Формат                                   : AC-3
    Формат/Информация                        : Audio Coding 3
    Расширение режима                        : CM (complete main)
    Параметр Endianness формата              : Big
    Идентификатор кодека                     : A_AC3
    Продолжительность                        : 56 м.
    Вид битрейта                             : Постоянный
    Битрейт                                  : 192 Кбит/сек
    Каналы                                   : 2 канала
    Расположение каналов                     : Front: L R
    Частота                                  : 48,0 КГц
    Битовая глубина                          : 16 бит
    Метод сжатия                             : С потерями
    Размер потока                            : 78,1 Мбайт (2%)
    Заголовок                                : MVO Ozz-tv
    Язык                                     : Russian
    Default                                  : Да
    Forced                                   : Нет

    Аудио #2
    Идентификатор                            : 3
    Формат                                   : E-AC-3
    Формат/Информация                        : Audio Coding 3
    Параметр Endianness формата              : Big
    Идентификатор кодека                     : A_EAC3
    Продолжительность                        : 56 м.
    Вид битрейта                             : Постоянный
    Битрейт                                  : 640 Кбит/сек
    Каналы                                   : 6 каналов
    Расположение каналов                     : Front: L C R, Side: L R, LFE
    Частота                                  : 48,0 КГц
    Метод сжатия                             : С потерями
    Размер потока                            : 260 Мбайт (7%)
    Язык                                     : English
    Default                                  : Нет
    Forced                                   : Нет

    Текст #1
    Идентификатор                            : 4
    Формат                                   : UTF-8
    Идентификатор кодека                     : S_TEXT/UTF8
    Идентификатор кодека/Информация          : UTF-8 Plain Text
    Заголовок                                : Илья Уюсов и Кирилл Порозов
    Язык                                     : Russian
    Default                                  : Нет
    Forced                                   : Нет

    Текст #2
    Идентификатор                            : 5
    Формат                                   : UTF-8
    Идентификатор кодека                     : S_TEXT/UTF8
    Идентификатор кодека/Информация          : UTF-8 Plain Text
    Язык                                     : English
    Default                                  : Нет
    Forced                                   : Нет


    Скриншоты
    [img]http://img12.lostpic.net/2017/12/16/10bc9b63b79d1866aff03548f051885b.png[/img][img]http://img12.lostpic.net/2017/12/16/dc15862eda054c530271a044a00a950c.png[/img][img]http://img12.lostpic.net/2017/12/16/30a2281a92a9f9cd9e1942dcddc9340d.png[/img]
    Еще похожие »

    Как скачать?
    1. Качаем UTorrent версии 2.0 и выше отсюда
    2. После установки, жмем на ссылку Скачать торрент.
    3. Открываем его через utorrent.
    4. Ждем пока подключатся участники.
    5. Качаем.


    Комментарии о Удивительная миссис Мейзел / The Marvelous Mrs. Maisel [Сезон 01 | 01-06 серии из 08] | WEBRip 1080p
    Добавлять комментарии могут только зарегистрированные пользователи

    Зарегистрироваться или Войти


    Ближайшее в кино
    • Пианистка дата выхода 18 января 2018Пианистка
      Дата выхода: 18 января 2018
    • Форма воды дата выхода 18 января 2018Форма воды
      Дата выхода: 18 января 2018
    • Астрал 4: Последний ключ дата выхода 18 января 2018Астрал 4: Последний ключ
      Дата выхода: 18 января 2018
    • Темные времена дата выхода 18 января 2018Темные времена
      Дата выхода: 18 января 2018
    • Скиф дата выхода 18 января 2018Скиф
      Дата выхода: 18 января 2018
    • Приключения Паддингтона 2 дата выхода 18 января 2018Приключения Паддингтона 2
      Дата выхода: 18 января 2018
    • Карп отмороженный дата выхода 18 января 2018Карп отмороженный
      Дата выхода: 18 января 2018
    • Мешок без дна дата выхода 18 января 2018Мешок без дна
      Дата выхода: 18 января 2018
    • МУЛЬТ в кино. Выпуск №67. Зимний карнавал дата выхода 20 января 2018МУЛЬТ в кино. Выпуск №67. Зимний карнавал
      Дата выхода: 20 января 2018
    • Бегущий в лабиринте: Лекарство от смерти дата выхода 25 января 2018Бегущий в лабиринте: Лекарство от смерти
      Дата выхода: 25 января 2018
    • Смерть Сталина дата выхода 25 января 2018Смерть Сталина
      Дата выхода: 25 января 2018
    • Zомбоящик дата выхода 25 января 2018Zомбоящик
      Дата выхода: 25 января 2018
    • Хэппи-энд дата выхода 25 января 2018Хэппи-энд
      Дата выхода: 25 января 2018
    • Побег из Рио дата выхода 25 января 2018Побег из Рио
      Дата выхода: 25 января 2018
    • Девушка в тумане дата выхода 25 января 2018Девушка в тумане
      Дата выхода: 25 января 2018
    Вверх