• Игры для PS4
  • Игры для PS3
  • Игры для XBOX360
  • Игры для PC
  • Игры для PS2
  • Игры для PSP
  • Для телефонов
  • Музыка
  • Книги / Журналы
  • Обои
  • Опрос
    Удобен ли сайт в использовании?
      0
    • Очень удобен, все понятно1,1,false,300,full
    • Удобен1,2,false,300,full
    • Средне1,3,false,300,full
    • Неудобен, трудно ориентироваться1,4,false,300,full
    • Совсем неудобен1,5,false,300,full
    Статистика
    Всего онлайн -
    Гостей -
    Пользователей -
    Короли трекера
    Благодарности () Закрыть
    Информация о фильме
    Оригинальное название: Вторая молодость
    Год выхода: 2017
    Жанр: Мелодрама
    Режиссер: Максим Субботин
    В ролях: Алёна Хмельницкая, Евгений Шириков, Дмитрий Ячевский, Прохор Дубравин, Марина Митрофанова, Галина Кашковская, Александр Песков, Анастасия Дубровина, Ольга Богомазова, Илья Сологуб

    О фильме: Проработав двадцать лет в галерее, Ирина (Алена Хмельницкая), наконец, решает уволиться, чтобы посвятить себя дому и семье. Однако вскоре выясняется, что ни мужу, ни взрослым дочерям ее заботы не нужны. Ее муж Борис (Дмитрий Ячевский) - владелец строительного бизнеса, с утра до ночи пропадает на стройке, старшая дочь живет с семьей за границей, а младшая Юля (Марина Митрофанова) увлечена романом с женатым мужчиной (Прохор Дубравин). Ира пытается отговорить дочь от этой связи, но та просит мать не лезть в ее жизнь. Чтобы занять себя, Ирина идет учиться в школу живописи. В нее влюбляется молодой и талантливой педагог и художник Максим (Евгений Шириков). Вопреки значительной разнице в возрасте и другим серьезным обстоятельствам у них начинается роман. Ирина корит себя за легкомыслие, ведь все это может разрушить ее семью, но ничего не может поделать… в сорок пять лет у нее начинается вторая молодость.

    [img]http://i89.fastpic.ru/big/2017/0502/69/67d521d70873d2399dac9e7d05d0b369.png[/img]

    Страна: Россия
    Студия: BUBBLEGUM PRODUCTION, Калейдоскоп Фильм
    Продолжительность: 01:39:46
    Перевод: Не Требуется
    Субтитры: Нет

    Файл
    Кодек: XviD
    Качество: HDTVRip
    Видео: 640x352 (1.82:1), 25 fps, XviD build 73 ~837 kbps avg, 0.15 bit/pixel
    Звук: 48 kHz, MPEG Layer 3, 2 ch, ~128.00 kbps avg

    MediaInfo
    General
    Complete name               : Vtoraya.Molodost.2017.HDTVRip.ot.Portablius.avi
    Format                      : AVI
    Format/Info                 : Audio Video Interleave
    File size                   : 696 MiB
    Duration                    : 1 h 39 min
    Overall bit rate            : 976 kb/s
    Writing application         : VirtualDubMod 1.5.10.3 | www.virtualdub-fr.org || (build 2550/release)
    Writing library             : VirtualDubMod build 2550/release

    Video
    ID                          : 0
    Format                      : MPEG-4 Visual
    Format profile              : Advanced Simple@L5
    Format settings, BVOP       : 1
    Format settings, QPel       : No
    Format settings, GMC        : No warppoints
    Format settings, Matrix     : Custom
    Codec ID                    : XVID
    Codec ID/Hint               : XviD
    Duration                    : 1 h 39 min
    Bit rate                    : 838 kb/s
    Width                       : 640 pixels
    Height                      : 352 pixels
    Display aspect ratio        : 16:9
    Frame rate                  : 25.000 FPS
    Color space                 : YUV
    Chroma subsampling          : 4:2:0
    Bit depth                   : 8 bits
    Scan type                   : Progressive
    Compression mode            : Lossy
    Bits/(Pixel*Frame)          : 0.149
    Stream size                 : 598 MiB (86%)
    Writing library             : XviD 73

    Audio
    ID                          : 1
    Format                      : MPEG Audio
    Format version              : Version 1
    Format profile              : Layer 3
    Codec ID                    : 55
    Codec ID/Hint               : MP3
    Duration                    : 1 h 39 min
    Bit rate mode               : Constant
    Bit rate                    : 128 kb/s
    Channel(s)                  : 2 channels
    Sampling rate               : 48.0 kHz
    Compression mode            : Lossy
    Stream size                 : 91.3 MiB (13%)
    Alignment                   : Aligned on interleaves
    Interleave, duration        : 40  ms (1.00 video frame)
    Interleave, preload duratio : 504  ms
    Writing library             : LAME3.99r
    Encoding settings           : -m s -V 4 -q 2 -lowpass 17 -b 128

    Свернуть


    Скриншоты
    [screen]http://i1.imageban.ru/out/2018/01/11/d7d318a34b6112cd60a47a83a75e43be.png[/screen][screen]http://i5.imageban.ru/out/2018/01/11/ce4e23d1eea37d6a30487c37c3417e08.png[/screen][screen]http://i5.imageban.ru/out/2018/01/11/a302a86efd26af350a957549dd4519bb.png[/screen][screen]http://i5.imageban.ru/out/2018/01/11/5712138f9a682a497064f1fbc44a0b8c.png[/screen][screen]http://i6.imageban.ru/out/2018/01/11/084a8f868c953940cb1bf4f2b48d7720.png[/screen][screen]http://i1.imageban.ru/out/2018/01/11/9dd459f38f66ac5ce21a33c727de8af9.png[/screen]Свернуть
    Похожие раздачи Искать похожие
    Инструкция по скачиванию
     1  Качаем uTorrent версии 2.0 и выше
     2  После установки, жмем выше под постером на ссылку Скачать [MediaGet] или Скачать .torrent
     3  Открываем скачанный файл через соответствующий клиент: MediaGet или uTorrent
     4  Ждем пока подключатся участники
     5  Качаем
    Комментарии о  Вторая молодость | HDTVRip 
    Ближайшее в кино
    Вверх