• Игры для PS4
  • Игры для PS3
  • Игры для XBOX360
  • Игры для PC
  • Игры для PS2
  • Игры для PSP
  • Для телефонов
  • Музыка
  • Книги / Журналы
  • Обои
  • Опрос
    Удобен ли сайт в использовании?
      0
    • Очень удобен, все понятно1,1,false,300,full
    • Удобен1,2,false,300,full
    • Средне1,3,false,300,full
    • Неудобен, трудно ориентироваться1,4,false,300,full
    • Совсем неудобен1,5,false,300,full
    Статистика
    Всего онлайн -
    Гостей -
    Пользователей -
    Короли трекера
    Благодарности () Закрыть
    Информация о фильме
    Название: Перезагрузка: обратный отсчёт
    Оригинальное название: Reset
    Год выхода: 2017
    Жанр: фантастика, драма
    Режиссер: Hong-Seung Yoon
    В ролях: Ян Ми, Уоллес Хо, Лю Чан, Чжан Ихань

    О фильме:
    У умницы и красавицы Ся Тянь (Ян Ми) есть два смысла жизни: первый – это ее обожаемый сын Лифу (Чжан Ихань), которого она растит в одиночку, а второй – создание машины времени на основе так называемых кротовых нор, исследованию которых она посвятила последние 8 лет своей жизни. Все это в одночасье рушится, когда мрачный злодей Цуй Ху (Уоллес Хо) похищает малыша и в обмен на его жизнь требует у отчаявшейся матери данные ее последних исследований. Чтобы спасти сына, Ся Тянь возвращается на 2 часа в прошлое, где встречает две другие версии себя...
    (с) Горчица


    Страна: Китай
    Продолжительность: 01:45:44
    Перевод: Любительский, многоголосый, закадровый (Перевод: FSG #404 [Nirvanа, Аля Ру и Twix], тайминг и редакция: Горчица, озвучка: студия "Колобок" и "XDUB DORAMA", закадровый текст читали: Den904, DeadSno и Izanami)

    Файл
    Кодек: V_MPEG4/ISO/AVC
    Качество: WEBRip 1080p
    Видео: 1920x800, 24.000 FPS, 1923 kb/s
    Звук: AC-3, 48.0 kHz, 2ch, 192 kb/s
    Субтитры: китайские (хардсаб)



    MediaInfo
    General
    Unique ID                                : 240542587882903451984110511556698822707 (0xB4F6D139F1B691E09CC4162673DBD833)
    Complete name                            : ПЕРЕЗАГРУЗКА [Колобок & XDUB DORAMA].mkv
    Format                                   : Matroska
    Format version                           : Version 4 / Version 2
    File size                                : 1.59 GiB
    Duration                                 : 1 h 45 min
    Overall bit rate                         : 2 158 kb/s
    Encoded date                             : UTC 2018-01-04 16:09:46
    Writing application                      : mkvmerge v6.2.0 ("Promised Land") built on Apr 28 2013 12:22:01
    Writing library                          : libebml v1.3.0 + libmatroska v1.4.0

    Video
    ID                                       : 1
    Format                                   : AVC
    Format/Info                              : Advanced Video Codec
    Format profile                           : High@L4
    Format settings, CABAC                   : Yes
    Format settings, RefFrames               : 3 frames
    Codec ID                                 : V_MPEG4/ISO/AVC
    Duration                                 : 1 h 45 min
    Bit rate                                 : 1 923 kb/s
    Width                                    : 1 920 pixels
    Height                                   : 800 pixels
    Display aspect ratio                     : 2.40:1
    Frame rate mode                          : Constant
    Frame rate                               : 24.000 FPS
    Color space                              : YUV
    Chroma subsampling                       : 4:2:0
    Bit depth                                : 8 bits
    Scan type                                : Progressive
    Bits/(Pixel*Frame)                       : 0.052
    Stream size                              : 1.42 GiB (89%)
    Writing library                          : qiyi.com vtc-test
    Default                                  : Yes
    Forced                                   : No
    Color range                              : Limited
    Color primaries                          : BT.709
    Transfer characteristics                 : BT.709
    Matrix coefficients                      : BT.709

    Audio
    ID                                       : 2
    Format                                   : AC-3
    Format/Info                              : Audio Coding 3
    Format settings, Endianness              : Big
    Codec ID                                 : A_AC3
    Duration                                 : 1 h 45 min
    Bit rate mode                            : Constant
    Bit rate                                 : 192 kb/s
    Channel(s)                               : 2 channels
    Channel positions                        : Front: L R
    Sampling rate                            : 48.0 kHz
    Frame rate                               : 31.250 FPS (1536 SPF)
    Bit depth                                : 16 bits
    Compression mode                         : Lossy
    Stream size                              : 145 MiB (9%)
    Service kind                             : Complete Main
    Default                                  : Yes
    Forced                                   : No
    Свернуть
    Похожие раздачи Искать похожие
    Инструкция по скачиванию
     1  Качаем uTorrent версии 2.0 и выше
     2  После установки, жмем выше под постером на ссылку Скачать [MediaGet] или Скачать .torrent
     3  Открываем скачанный файл через соответствующий клиент: MediaGet или uTorrent
     4  Ждем пока подключатся участники
     5  Качаем
    Комментарии о  Обратный отсчёт: Перезапуск / Reset / Zhi ming dao shu | WEBRip 1080p 
    Ближайшее в кино
    Вверх