• Игры для PS4
  • Игры для PS3
  • Игры для XBOX360
  • Игры для PC
  • Игры для PS2
  • Игры для PSP
  • Для телефонов
  • Музыка
  • Книги / Журналы
  • Обои
  • Опрос
    Откуда Вы о нас узнали?
      0
    • От знакомых2,1,false,300,full
    • Из социальных сетей2,2,false,300,full
    • Из поисковых систем2,3,false,300,full
    • Другое2,4,false,300,full
    Статистика
    Всего онлайн -
    Гостей -
    Пользователей -
    Короли трекера
    Благодарности () Закрыть
    Информация о фильме
    Название: Дикая Франция
    Оригинальное: La France sauvage
    Год выхода: 2011
    Жанр: Документальный, видовой, природа, флора, фауна
    Режиссер: Фредерик Фебвр, Августин Виатт

    О фильме:
    Во Франции дикая жизнь заполняет каждый клочок территории. Она подчиняется световым циклам и живёт в своём собственном ритме, задаваемом испокон веков великими курантами природы. Для животных и растений Франция - страна исключительная и уникальная. Её контрастные климатические зоны и богатые ландшафты, приютили поразительное разнообразие видов, которые можно встретить везде - от берегов моря до горных вершин. Дикая жизнь везде, иногда - незаметная, но такая близкая. Её основной закон - приспособиться чтобы выжить. Узнать её означает прочувствовать пульсацию времён года, пробудить самые яркие чувства, увидеть мощь сил природы и открыть неизвестную Францию.

    Страна: Франция
    Студия: Arte G.E.I.E - Gedeon Programmes
    Продолжительность: 01:29:19
    Перевод: Авторский (одноголосый, закадровый)

    Файл
    Кодек: MPEG-4 AVC
    Качество: BDRemux 1080p | A
    Видео: 1920x1080, 27,6 Мбит/с, 25 кадр/c
    Звук: DTS-HD MA, 6 каналов, 2124 Кбит/с

    MI
    Полное имя : C:UsersDVideosДИКАЯ ФРАНЦИЯ.mkv
    Формат : Matroska
    Версия формата : Version 4 / Version 2
    Размер файла : 18,5 Гбайт
    Продолжительность : 1 ч. 29 м.
    Режим общего битрейта : Переменный
    Общий поток : 29,7 Мбит/сек
    Дата кодирования : UTC 2017-12-02 03:30:37
    Программа кодирования : mkvmerge v18.0.0 ("Apricity") 64-bit
    Библиотека кодирования : libebml v1.3.5 + libmatroska v1.4.8

    Видео
    Идентификатор : 1
    Формат : AVC
    Формат/Информация : Advanced Video Codec
    Профиль формата : High@L4.1
    Настройки формата : CABAC / 4 Ref Frames
    Параметр CABAC формата : Да
    Параметр RefFrames формата : 4 кадра
    Идентификатор кодека : V_MPEG4/ISO/AVC
    Продолжительность : 1 ч. 29 м.
    Вид битрейта : Переменный
    Битрейт : 27,6 Мбит/сек
    Максимальный битрейт : 35,0 Мбит/сек
    Ширина : 1920 пикселей
    Высота : 1080 пикселей
    Соотношение сторон : 16:9
    Режим частоты кадров : Постоянный
    Частота кадров : 25,000 кадров/сек
    Стандарт вещания : PAL
    Цветовое пространство : YUV
    Субдискретизация насыщенности : 4:2:0
    Битовая глубина : 8 бит
    Тип развёртки : MBAFF
    Бит/(Пиксели*Кадры) : 0.531
    Размер потока : 17,2 Гбайт (93%)
    Default : Да
    Forced : Нет
    Цветовой диапазон : Limited
    Основные цвета : BT.709
    Характеристики трансфера : BT.709
    Коэффициенты матрицы : BT.709

    Аудио
    Идентификатор : 2
    Формат : DTS
    Формат/Информация : Digital Theater Systems
    Профиль формата : MA / Core
    Идентификатор кодека : A_DTS
    Продолжительность : 1 ч. 29 м.
    Вид битрейта : Переменный / Постоянный
    Битрейт : 2124 Кбит/сек / 1509 Кбит/сек
    Каналы : 6 каналов
    Расположение каналов : Front: L C R, Side: L R, LFE
    Частота : 48,0 КГц
    Частота кадров : 93,750 кадра/сек (512 SPF)
    Битовая глубина : 16 бит
    Метод сжатия : Без потерь / Lossy
    Размер потока : 1,33 Гбайт (7%)
    Язык : Russian
    Default : Да
    Forced : НетСвернуть


    Скриншоты
    [screen]http://i3.imageban.ru/out/2018/01/11/e4f72227096a22699efca2f602df3a43.jpg[/screen][screen]http://i2.imageban.ru/out/2018/01/11/0acf6dd7fffd95365fa0f3a26f09f784.jpg[/screen][screen]http://i5.imageban.ru/out/2018/01/11/f2bb1c95f87525572601b91e10c346eb.jpg[/screen][screen]http://i6.imageban.ru/out/2018/01/11/ad493a80155c53113cabcd783142509c.jpg[/screen][screen]http://i1.imageban.ru/out/2018/01/11/92b4e8a0fa458cb0e41d9db5115b32ee.jpg[/screen][screen]http://i3.imageban.ru/out/2018/01/11/9eab9e3d0160192f271e4ee4c0db16f1.jpg[/screen][screen]http://i2.imageban.ru/out/2018/01/11/ca011924396b77020d6083c401787012.jpg[/screen][screen]http://i2.imageban.ru/out/2018/01/11/7730fa5adac341c1a7fcf8027387ac2d.jpg[/screen]Свернуть
    Инструкция по скачиванию
     1  Качаем uTorrent версии 2.0 и выше
     2  После установки, жмем выше под постером на ссылку Скачать [MediaGet] или Скачать .torrent
     3  Открываем скачанный файл через соответствующий клиент: MediaGet или uTorrent
     4  Ждем пока подключатся участники
     5  Качаем
    Комментарии о  Дикая Франция / La France sauvage | BDRemux 1080p 
    Ближайшее в кино
    Вверх