• Игры для PS4
  • Игры для PS3
  • Игры для XBOX360
  • Игры для PC
  • Игры для PS2
  • Игры для PSP
  • Для телефонов
  • Музыка
  • Книги / Журналы
  • Обои
  • Опрос
    Откуда Вы о нас узнали?
      0
    • От знакомых2,1,false,300,full
    • Из социальных сетей2,2,false,300,full
    • Из поисковых систем2,3,false,300,full
    • Другое2,4,false,300,full
    Статистика
    Всего онлайн -
    Гостей -
    Пользователей -
    Короли трекера
    Благодарности () Закрыть
    Информация о фильме
    Название: Охота за «Красным Октябрем»
    Оригинальное название: The Hunt for Red October
    Год выхода: 1990
    Жанр:  боевик, триллер, приключения
    Режиссер: Джон МакТирнан
    В ролях: Шон Коннери, Алек Болдуин, Скотт Гленн, Сэм Нилл, Джеймс Эрл Джонс, Джосс Экланд, Ричард Джордан, Питер Фёрт, Тим Карри, Кортни Б. Вэнс, Стеллан Скарсгард, Джеффри Джонс, Тимоти Кархарт, Ларри Фергюсон, Фред Далтон Томпсон, Дэниэл Дэвис, Нед Вон, Энтони Пек, Том Фишер, Пит Антико

    О фильме:
    Новейшая советская атомная подводная лодка «Красный Октябрь» способна нарушить хрупкий стратегический баланс между США и СССР.
    Ее капитан Рамиус решает передать субмарину в руки американцев.



    Выпущено: США
    Студия: Paramount Pictures
    Продолжительность: 02:15:08
    Перевод: Профессиональный многоголосый закадровый (Blu-ray CEE)

    Файл
    Кодек: AVC
    Качество: BDRip 720p
    Видео: 1280x544 (2,35:1), 23.976 fps, 3980 kbps
    Звук: AC-3, 6 ch, 640 kbps

    [img]http://6.firepic.org/6/images/2014-02/02/u5spo6zy8evt.gif[/img]

    M/I
    General
    Unique ID                                : 235000107697949365549940190356377295389 (0xB0CB5FDAF8613B01BE1613DC75B1DA1D)
    Complete name                            : D:КИНОOhota.za.Krasnym.Oktjabrem.(1990).BDRip.720p.[-=DoMiNo=-].mkv
    Format                                   : Matroska
    Format version                           : Version 2
    File size                                : 4.36 GiB
    Duration                                 : 2h 15mn
    Overall bit rate                         : 4 622 Kbps
    Encoded date                             : UTC 2014-03-17 08:21:49
    Writing application                      : mkvmerge v6.1.0 ("Old Devil") built on Mar  4 2013 09:10:42
    Writing library                          : libebml v1.3.0 + libmatroska v1.4.0

    Video
    ID                                       : 1
    Format                                   : AVC
    Format/Info                              : Advanced Video Codec
    Format profile                           : High@L4.1
    Format settings, CABAC                   : Yes
    Format settings, ReFrames                : 11 frames
    Codec ID                                 : V_MPEG4/ISO/AVC
    Duration                                 : 2h 15mn
    Bit rate                                 : 3 980 Kbps
    Width                                    : 1 280 pixels
    Height                                   : 544 pixels
    Display aspect ratio                     : 2.35:1
    Frame rate mode                          : Constant
    Frame rate                               : 23.976 fps
    Color space                              : YUV
    Chroma subsampling                       : 4:2:0
    Bit depth                                : 8 bits
    Scan type                                : Progressive
    Bits/(Pixel*Frame)                       : 0.238
    Stream size                              : 3.67 GiB (84%)
    Writing library                          : x264 core 130 r2273 b3065e6
    Encoding settings                        : cabac=1 / ref=11 / deblock=1:-3:-3 / analyse=0x3:0x133 / me=umh / subme=11 / psy=1 / psy_rd=1.00:0.20 / mixed_ref=1 / me_range=32 / chroma_me=1 / trellis=2 / 8x8dct=1 / cqm=0 / deadzone=21,11 / fast_pskip=0 / chroma_qp_offset=-6 / threads=6 / lookahead_threads=6 / sliced_threads=0 / slices=4 / nr=0 / decimate=1 / interlaced=0 / bluray_compat=0 / constrained_intra=0 / bframes=8 / b_pyramid=2 / b_adapt=2 / b_bias=0 / direct=3 / weightb=1 / open_gop=1 / weightp=2 / keyint=240 / keyint_min=23 / scenecut=40 / intra_refresh=0 / rc_lookahead=50 / rc=2pass / mbtree=1 / bitrate=3980 / ratetol=1.0 / qcomp=0.60 / qpmin=10 / qpmax=51 / qpstep=4 / cplxblur=20.0 / qblur=0.5 / ip_ratio=1.40 / aq=1:1.50
    Default                                  : Yes
    Forced                                   : No

    Audio
    ID                                       : 2
    Format                                   : AC-3
    Format/Info                              : Audio Coding 3
    Mode extension                           : CM (complete main)
    Format settings, Endianness              : Big
    Codec ID                                 : A_AC3
    Duration                                 : 2h 15mn
    Bit rate mode                            : Constant
    Bit rate                                 : 640 Kbps
    Channel(s)                               : 6 channels
    Channel positions                        : Front: L C R, Side: L R, LFE
    Sampling rate                            : 48.0 KHz
    Bit depth                                : 16 bits
    Compression mode                         : Lossy
    Stream size                              : 619 MiB (14%)
    Default                                  : Yes
    Forced                                   : NoСвернуть


    Скриншоты
    [screen]http://youpicture.org/language/en/flag.png[/screen][screen]http://youpicture.org/language/en/flag.png[/screen][screen]http://youpicture.org/language/en/flag.png[/screen][screen]http://youpicture.org/language/en/flag.png[/screen][screen]http://youpicture.org/language/en/flag.png[/screen][screen]http://youpicture.org/language/en/flag.png[/screen][screen]http://youpicture.org/language/en/flag.png[/screen][screen]http://youpicture.org/language/en/flag.png[/screen][screen]http://youpicture.org/language/en/flag.png[/screen][screen]http://youpicture.org/language/en/flag.png[/screen][screen]http://youpicture.org/language/en/flag.png[/screen][screen]http://youpicture.org/language/en/flag.png[/screen][screen]http://youpicture.org/language/en/flag.png[/screen]Свернуть
    Инструкция по скачиванию
     1  Качаем uTorrent версии 2.0 и выше
     2  После установки, жмем выше под постером на ссылку Скачать [MediaGet] или Скачать .torrent
     3  Открываем скачанный файл через соответствующий клиент: MediaGet или uTorrent
     4  Ждем пока подключатся участники
     5  Качаем
    Комментарии о  Охота за «Красным Октябрем» / The Hunt for Red October | BDRip 720p 
    Ближайшее в кино
    Вверх