• Игры для PS4
  • Игры для PS3
  • Игры для XBOX360
  • Игры для PC
  • Игры для PS2
  • Игры для PSP
  • Для телефонов
  • Музыка
  • Книги / Журналы
  • Обои
  • Опрос
    Удобен ли сайт в использовании?
      0
    • Очень удобен, все понятно1,1,false,300,full
    • Удобен1,2,false,300,full
    • Средне1,3,false,300,full
    • Неудобен, трудно ориентироваться1,4,false,300,full
    • Совсем неудобен1,5,false,300,full
    Статистика
    Всего онлайн -
    Гостей -
    Пользователей -
    Короли трекера
    Благодарности () Закрыть
    Страна: Франция
    Жанр:  триллер, комедия, детектив, приключения
    Год выпуска: 1987
    Продолжительность: 01:43:20

    Перевод: Профессиональный (дублированный)
    Перевод 2: Профессиональный (двухголосый закадровый) -  CP Digital
    Субтитры: русские
    Оригинальная аудиодорожка: французский

    Режиссер: Клод Зиди / Claude Zidi

    В ролях: Франсуа Клюзе, Кристоф Малавуа, Жан-Пьер Биссон, Клер Небу, Жерар ЛеКейон, Жан-Клод Легэ, Вероник Жене, Юбер Дешам, Роже Дюма, Люба Герчикофф, Натали Кребс, Жан-Мари Хуан, Дидье Каминка, Ана Падряо, Жак Писиас, Франсуа Римбо, Патриция Мальвуазен, Хаким Ганем, Роже Берто, Бруно Журни, Глэдис Берри, Бернар Дюмен, Серж Риду, Корнелия Вильм, Жан-Клод Валаде, Симон Микаэль, Жак Ардуэн

    Описание: Три приятеля, выпускники Высшего коммерческого училища, вполне преуспевающие в жизни и бизнесе, подшутили над четвертым после встречи выпускников.
    Зная его репутацию вечного неудачника, они смонтировали на видеокассете выигрыш купленного им лотерейного билета. А тот, приняв розыгрыш за действительность, взял и заложил магазинчик матери, чтобы купить землю и построить Луна-парк.
    Поняв, что никаких денег он не выиграет, Даниэль обращается за помощью к выпускнику их училища Бернару Асслеру, который собирался обмануть незадачливого предпринимателя.

    Тип релиза: HDTV 1080i
    Контейнер: MKV

    Видео: 1920x1080 (16:9), 25.000 fps, AVC, ~7928 Kbps, 0.149 bits/pixel
    Аудио:  Russian, 48.0 KHz, AC3, 2 ch, 192 Kbps - Дубляж
    Аудио 2: Russian, 48.0 KHz, AC3, 6 ch, 448 Kbps - Двухголосый закадровый - CP Digital
    Аудио 3:  French, 48.0 KHz, AC3, 2 ch, 192 Kbps - Оригинал
    Формат субтитров: softsub (SRT)
    Сэмпл: https://yadi.sk/i/J8MN3wK13RNoRq

    MediaInfo

    Общее
    Уникальный идентификатор                 : 241362164616671468087623237308443053270 (0xB594A97AA65701CFB3F98D7CCB00CCD6)
    Полное имя                               : D:Association.de.malfaiteurs.1987.HDTV.1080i.2xRus.Fra.mkv
    Формат                                   : Matroska
    Версия формата                           : Version 4 / Version 2
    Размер файла                             : 6,32 Гбайт
    Продолжительность                        : 1 ч. 43 м.
    Общий поток                              : 8754 Кбит/сек
    Название фильма                          : Ассоциация злоумышленников by D_I_A_B_L_O
    Дата кодирования                         : UTC 2018-01-11 18:45:24
    Программа кодирования                    : mkvmerge v7.9.0 ("Birds") 64bit
    Библиотека кодирования                   : libebml v1.3.1 + libmatroska v1.4.2

    Видео
    Идентификатор                            : 1
    Формат                                   : AVC
    Формат/Информация                        : Advanced Video Codec
    Профиль формата                          : High@L4
    Параметр CABAC формата                   : Да
    Параметр RefFrames формата               : 4 кадра
    Идентификатор кодека                     : V_MPEG4/ISO/AVC
    Продолжительность                        : 1 ч. 43 м.
    Битрейт                                  : 7928 Кбит/сек
    Ширина                                   : 1920 пикселей
    Высота                                   : 1080 пикселей
    Соотношение сторон                       : 16:9
    Режим частоты кадров                     : Постоянный
    Частота кадров                           : 25,000 кадров/сек
    Стандарт вещания                         : Component
    Цветовое пространство                    : YUV
    Субдискретизация насыщенности            : 4:2:0
    Битовая глубина                          : 8 бит
    Тип развёртки                            : MBAFF
    Метод сохранения типа развёртки          : Чередующиеся поля
    Порядок развёртки                        : Верхнее поле первое
    Бит/(Пиксели*Кадры)                      : 0.153
    Размер потока                            : 5,72 Гбайт (90%)
    Default                                  : Нет
    Forced                                   : Нет
    Цветовой диапазон                        : Limited
    Основные цвета                           : BT.709
    Характеристики трансфера                 : BT.709
    Коэффициенты матрицы                     : BT.709

    Аудио #1
    Идентификатор                            : 2
    Формат                                   : AC-3
    Формат/Информация                        : Audio Coding 3
    Параметр Endianness формата              : Big
    Идентификатор кодека                     : A_AC3
    Продолжительность                        : 1 ч. 43 м.
    Вид битрейта                             : Постоянный
    Битрейт                                  : 192 Кбит/сек
    Каналы                                   : 2 канала
    Расположение каналов                     : Front: L R
    Частота                                  : 48,0 КГц
    Частота кадров                           : 31,250 кадров/сек (1536 SPF)
    Битовая глубина                          : 16 бит
    Метод сжатия                             : С потерями
    Размер потока                            : 142 Мбайт (2%)
    Заголовок                                : Дубляж
    Язык                                     : Russian
    ServiceKind/String                       : Complete Main
    Default                                  : Да
    Forced                                   : Нет

    Аудио #2
    Идентификатор                            : 3
    Формат                                   : AC-3
    Формат/Информация                        : Audio Coding 3
    Параметр Endianness формата              : Big
    Идентификатор кодека                     : A_AC3
    Продолжительность                        : 1 ч. 43 м.
    Вид битрейта                             : Постоянный
    Битрейт                                  : 448 Кбит/сек
    Каналы                                   : 6 каналов
    Расположение каналов                     : Front: L C R, Side: L R, LFE
    Частота                                  : 48,0 КГц
    Частота кадров                           : 31,250 кадров/сек (1536 SPF)
    Битовая глубина                          : 16 бит
    Метод сжатия                             : С потерями
    Размер потока                            : 331 Мбайт (5%)
    Заголовок                                : Двухголосый закадровый - CP Digital
    Язык                                     : Russian
    ServiceKind/String                       : Complete Main
    Default                                  : Нет
    Forced                                   : Нет

    Аудио #3
    Идентификатор                            : 4
    Формат                                   : AC-3
    Формат/Информация                        : Audio Coding 3
    Параметр Endianness формата              : Big
    Идентификатор кодека                     : A_AC3
    Продолжительность                        : 1 ч. 43 м.
    Вид битрейта                             : Постоянный
    Битрейт                                  : 192 Кбит/сек
    Каналы                                   : 2 канала
    Расположение каналов                     : Front: L R
    Частота                                  : 48,0 КГц
    Частота кадров                           : 31,250 кадров/сек (1536 SPF)
    Битовая глубина                          : 16 бит
    Метод сжатия                             : С потерями
    Размер потока                            : 142 Мбайт (2%)
    Заголовок                                : Оригинал
    Язык                                     : French
    ServiceKind/String                       : Complete Main
    Default                                  : Нет
    Forced                                   : Нет

    Текст
    Идентификатор                            : 5
    Формат                                   : UTF-8
    Идентификатор кодека                     : S_TEXT/UTF8
    Идентификатор кодека/Информация          : UTF-8 Plain Text
    Продолжительность                        : 1 ч. 41 м.
    Битрейт                                  : 89 бит/сек
    ElementCount                             : 970
    Размер потока                            : 66,4 Кбайт (0%)
    Язык                                     : Russian
    Default                                  : Да
    Forced                                   : Нет

    Свернуть


    Скриншоты

    [screen]http://i103.fastpic.ru/big/2018/0111/6c/7fed6f14087f331496fd11712508af6c.png[/screen][screen]http://i103.fastpic.ru/big/2018/0111/ab/fdcca58dbd619b168167848398b22cab.png[/screen][screen]http://i103.fastpic.ru/thumb/2018/0111/2a/_c1b8b202b19b507c2214590f4cd46f2a.jpeg[/screen][screen]http://i103.fastpic.ru/big/2018/0111/db/156947f1496f5fbfd0ec8edbadb374db.png[/screen][screen]http://i103.fastpic.ru/big/2018/0111/12/9e20afb534dfb3329e834c9a61a68212.png[/screen][screen]http://i103.fastpic.ru/thumb/2018/0111/8f/_a82f8625f23c85e56c867a136adcde8f.jpeg[/screen][screen]http://i103.fastpic.ru/big/2018/0111/f7/ad6cfdfb233427e7e7c995dd4bbae3f7.png[/screen]
    Свернуть
    Похожие раздачи Искать похожие
    Инструкция по скачиванию
     1  Качаем uTorrent версии 2.0 и выше
     2  После установки, жмем выше под постером на ссылку Скачать [MediaGet] или Скачать .torrent
     3  Открываем скачанный файл через соответствующий клиент: MediaGet или uTorrent
     4  Ждем пока подключатся участники
     5  Качаем
    Комментарии о  Ассоциация злоумышленников / Association de malfaiteurs | HDTV 1080i 
    Ближайшее в кино
    Вверх