• Игры для PS4
  • Игры для PS3
  • Игры для XBOX360
  • Игры для PC
  • Игры для PS2
  • Игры для PSP
  • Для телефонов
  • Музыка
  • Книги/Журналы
  • Обои
  •  
    Опрос
    Удобен ли сайт в использовании?
      0
    • Очень удобен, все понятно1,1,false,300,full
    • Удобен1,2,false,300,full
    • Средне1,3,false,300,full
    • Неудобен, трудно ориентироваться1,4,false,300,full
    • Совсем неудобен1,5,false,300,full
    Статистика
    Загрузка...
    Месть Розовой пантеры / Revenge of the Pink Panther | BDRemux 1080p
    Статус  Проверено
    В закладки
    Модератор: Max

    Месть Розовой пантеры / Revenge of the Pink Panther | BDRemux 1080p [Фильмы 1978] скачать торрентом/torrent бесплатно

    Год выхода
    Язык
    Закачал
    Max | 12 января в 09ч 12м 45с
    Раздел
    Отзывов
    0
    Раздают: 0 Качают: 0 Скачали: 0 Размер: 25.6 GB
    Инфо о раздаче | Благодарности |
    0/5
    0
    0 5 0
    Поддержи нас — расскажи друзьям!
    Orbitum
    Новый интернет-браузер Быстрее загружает сайты Экономит интернет—трафик Меняет оформление страницы ВК Блокирует всю рекламу на сайтах Загружает торренты как

    µTorrent

    клиент
    Объеденяет все твои чаты из соц. сетей в один Проигрывает твою музыку не заходя во ВКонтакте
    Скачать и многое другое... Подробности на сайте производителя
    Месть Розовой пантеры / Revenge of the Pink Panther

    Страна: Великобритания [img]http://st.kp.yandex.net/images/flags/flag-11.gif[/img] США [img]http://st.kp.yandex.net/images/flags/flag-1.gif[/img]
    Производство: Jewel Productions Ltd., Pimlico Films, Sellers-Edwards productions
    Год выпуска: 1978
    Жанр:  комедия, криминал, детектив
    Продолжительность: 01:38:58

    Режиссер: Блейк Эдвардс
    Авторы сценария: Блейк Эдвардс, Фрэнк Уолдман, Рон Кларк

    В ролях: Питер Селлерс, Херберт Лом, Берт Квук, Дайан Кэннон, Роберт Уэббер, Тони Бекли, Роберт Лоджа, Пол Стюарт, Андре Маранн, Грэм Старк

    Описание: По Франции разносится слух, что старший инспектор Клузо погиб. Вся страна скорбит, ликует лишь один инспектор Дрейфус… Наконец-то, он избавился от ненавистного коллеги! Однако его радость быстро заканчивается. Оказалось, что смерть Клузо — всего лишь мистификация, задуманная им самим, чтобы поймать опаснейшего преступника...



    Перевод: Профессиональный (дублированный) + Профессиональный (многоголосый) + Профессиональный (двухголосый) + Авторский (одноголосый)
    Субтитры: английские (SDH)

    Качество: BDRemux 1080p | исходник Revenge.of.the.Pink.Panther.1978.1080p.BluRay.REMUX.AVC.DTS-HD.MA.5.1-EPSiLON
    Формат: МКV
    Видео кодек: AVC
    Аудио кодек: АС3 | DTS
    Видео: 1920x1080 (16:9), 23.976 fps, MPEG-4 AVC ~31.8 Мbps avg
    Аудио №1: 48.0 kHz, AC3 Dolby Digital, 2/0 (L,R) ch, ~192 kbps | RUS / DUB / ТНТ
    Аудио №2: 48.0 kHz, AC3 Dolby Digital, 3/2 (L,C,R,l,r) + LFE ch, ~448 kbps | RUS / МVO
    Аудио №3: 48.0 kHz, AC3 Dolby Digital, 2/0 (L,R) ch, ~192 kbps | RUS / DVO / НТВ+
    Аудио №4: 48.0 kHz, AC3 Dolby Digital, 2/0 (L,R) ch, ~192 kbps | RUS / AVO / Алексей Михалёв
    Аудио №5: 48.0 kHz, Digital Theater Systems Master Audio, 3/2 (L,C,R,l,r) + LFE ch, ~2585 kbps | ENG
    Аудио №6: 48.0 kHz, Digital Theater Systems Master Audio, 2/0 (L,R) ch, ~1604 kbps | ENG / Commentary
    Формат субтитров: UTF-8 Plain Text

    Дата премьеры (мир): 13 июля 1978

    [img]http://s010.radikal.ru/i313/1609/5b/ca3b75e82c69.gif[/img]

    BDRemux Info

    Уникальный идентификатор : 211391728445008801085566984844265418301 (0x9F0890E41E29AA1C6E93C162B24C6E3D)
    Полное имя : Revenge.of.the.Pink.Panther.1978.BDRemux.1080p.mkv
    Формат : Matroska
    Версия формата : Version 4 / Version 2
    Размер файла : 25,6 Гбайт
    Продолжительность : 1 ч. 38 м.
    Режим общего битрейта : Переменный
    Общий поток : 37,0 Мбит/сек
    Название фильма : Revenge.of.the.Pink.Panther.1978.BDRemux.1080p-porvaliparus
    Дата кодирования : UTC 2018-01-11 22:15:49
    Программа кодирования : mkvmerge v19.0.0 ("Brave Captain") 64-bit
    Библиотека кодирования : libebml v1.3.5 + libmatroska v1.4.8

    Видео
    Идентификатор : 1
    Формат : AVC
    Формат/Информация : Advanced Video Codec
    Профиль формата : High@L4.1
    Настройки формата : CABAC / 4 Ref Frames
    Параметр CABAC формата : Да
    Параметр RefFrames формата : 4 кадра
    Идентификатор кодека : V_MPEG4/ISO/AVC
    Продолжительность : 1 ч. 38 м.
    Вид битрейта : Переменный
    Битрейт : 31,8 Мбит/сек
    Максимальный битрейт : 36,0 Мбит/сек
    Ширина : 1920 пикселей
    Высота : 1080 пикселей
    Соотношение сторон : 16:9
    Режим частоты кадров : Постоянный
    Частота кадров : 23,976 (24000/1001) кадра/сек
    Цветовое пространство : YUV
    Субдискретизация насыщенности : 4:2:0
    Битовая глубина : 8 бит
    Тип развёртки : Прогрессивная
    Бит/(Пиксели*Кадры) : 0.640
    Размер потока : 22,0 Гбайт (86%)
    Заголовок : Revenge.of.the.Pink.Panther.1978.BDRemux.1080p
    Default : Да
    Forced : Нет

    Аудио #1
    Идентификатор : 2
    Формат : AC-3
    Формат/Информация : Audio Coding 3
    Идентификатор кодека : A_AC3
    Продолжительность : 1 ч. 38 м.
    Вид битрейта : Постоянный
    Битрейт : 192 Кбит/сек
    Каналы : 2 канала
    Расположение каналов : Front: L R
    Частота : 48,0 КГц
    Частота кадров : 31,250 кадров/сек (1536 SPF)
    Битовая глубина : 16 бит
    Метод сжатия : С потерями
    Размер потока : 136 Мбайт (1%)
    Заголовок : Dub [ТНТ]
    Язык : Russian
    Default : Да
    Forced : Нет

    Аудио #2
    Идентификатор : 3
    Формат : AC-3
    Формат/Информация : Audio Coding 3
    Идентификатор кодека : A_AC3
    Продолжительность : 1 ч. 38 м.
    Вид битрейта : Постоянный
    Битрейт : 448 Кбит/сек
    Каналы : 6 каналов
    Расположение каналов : Front: L C R, Side: L R, LFE
    Частота : 48,0 КГц
    Частота кадров : 31,250 кадров/сек (1536 SPF)
    Битовая глубина : 16 бит
    Метод сжатия : С потерями
    Размер потока : 317 Мбайт (1%)
    Заголовок : MVO
    Язык : Russian
    Default : Нет
    Forced : Нет

    Аудио #3
    Идентификатор : 4
    Формат : AC-3
    Формат/Информация : Audio Coding 3
    Идентификатор кодека : A_AC3
    Продолжительность : 1 ч. 38 м.
    Вид битрейта : Постоянный
    Битрейт : 192 Кбит/сек
    Каналы : 2 канала
    Расположение каналов : Front: L R
    Частота : 48,0 КГц
    Частота кадров : 31,250 кадров/сек (1536 SPF)
    Битовая глубина : 16 бит
    Метод сжатия : С потерями
    Размер потока : 136 Мбайт (1%)
    Заголовок : DVO [НТВ+]
    Язык : Russian
    Default : Нет
    Forced : Нет

    Аудио #4
    Идентификатор : 5
    Формат : AC-3
    Формат/Информация : Audio Coding 3
    Идентификатор кодека : A_AC3
    Продолжительность : 1 ч. 38 м.
    Вид битрейта : Постоянный
    Битрейт : 192 Кбит/сек
    Каналы : 2 канала
    Расположение каналов : Front: L R
    Частота : 48,0 КГц
    Частота кадров : 31,250 кадров/сек (1536 SPF)
    Битовая глубина : 16 бит
    Метод сжатия : С потерями
    Размер потока : 136 Мбайт (1%)
    Заголовок : AVO [А. Михалев]
    Язык : Russian
    Default : Нет
    Forced : Нет

    Аудио #5
    Идентификатор : 6
    Формат : DTS
    Формат/Информация : Digital Theater Systems
    Профиль формата : MA / Core
    Идентификатор кодека : A_DTS
    Продолжительность : 1 ч. 38 м.
    Вид битрейта : Переменный / Постоянный
    Битрейт : 2585 Кбит/сек / 1509 Кбит/сек
    Каналы : 6 каналов
    Расположение каналов : Front: L C R, Side: L R, LFE
    Частота : 48,0 КГц
    Частота кадров : 93,750 кадра/сек (512 SPF)
    Битовая глубина : 24 бит
    Метод сжатия : Без потерь / Lossy
    Размер потока : 1,79 Гбайт (7%)
    Язык : English
    Default : Нет
    Forced : Нет

    Аудио #6
    Идентификатор : 7
    Формат : DTS
    Формат/Информация : Digital Theater Systems
    Профиль формата : MA / Core
    Идентификатор кодека : A_DTS
    Продолжительность : 1 ч. 38 м.
    Вид битрейта : Переменный / Постоянный
    Битрейт : 1604 Кбит/сек / 1509 Кбит/сек
    Каналы : 2 канала
    Расположение каналов : Front: L R
    Частота : 48,0 КГц
    Частота кадров : 93,750 кадра/сек (512 SPF)
    Битовая глубина : 24 бит
    Метод сжатия : Без потерь / Lossy
    Размер потока : 1,11 Гбайт (4%)
    Заголовок : Commentary by author and film historian William Patrick Maynard
    Язык : English
    Default : Нет
    Forced : Нет

    Текст
    Идентификатор : 8
    Формат : UTF-8
    Идентификатор кодека : S_TEXT/UTF8
    Идентификатор кодека/Информация : UTF-8 Plain Text
    Продолжительность : 1 ч. 37 м.
    Битрейт : 58 бит/сек
    ElementCount : 1238
    Размер потока : 41,6 Кбайт (0%)
    Заголовок : SDH
    Язык : English
    Default : Нет
    Forced : Нет

    Меню
    00:00:00.000 : en:Chapter 1
    00:11:46.164 : en:Chapter 2
    00:19:25.373 : en:Chapter 3
    00:26:16.533 : en:Chapter 4
    00:34:51.423 : en:Chapter 5
    00:44:37.592 : en:Chapter 6
    00:52:39.823 : en:Chapter 7
    01:01:04.578 : en:Chapter 8
    01:09:27.372 : en:Chapter 9
    01:17:24.473 : en:Chapter 10
    01:25:02.389 : en:Chapter 11
    01:31:18.056 : en:Chapter 12


    Скриншоты
    [img]http://lostpic.net/images/2018/01/12/04472657d8f2b496ec3531b8c22ea026.png[/img][img]http://lostpic.net/images/2018/01/12/c0d9cd06a46c4b1ec39973d6122a4b1c.png[/img][img]http://lostpic.net/images/2018/01/12/98a1acfa82cd64aa301dd3c0330ccb0d.png[/img]
    Еще похожие »

    Как скачать?
    1. Качаем UTorrent версии 2.0 и выше отсюда
    2. После установки, жмем на ссылку Скачать торрент.
    3. Открываем его через utorrent.
    4. Ждем пока подключатся участники.
    5. Качаем.


    Комментарии о Месть Розовой пантеры / Revenge of the Pink Panther | BDRemux 1080p
    Добавлять комментарии могут только зарегистрированные пользователи

    Зарегистрироваться или Войти


    Ближайшее в кино
    • 8 подруг Оушена дата выхода 21 июня 20188 подруг Оушена
      Дата выхода: 21 июня 2018
    • 939579|Сага о чудовище. Сумерки|21 июня 2018|200|300Сага о чудовище. Сумерки
      Дата выхода: 21 июня 2018
    • 1045170|Ночная смена|21 июня 2018|200|300Ночная смена
      Дата выхода: 21 июня 2018
    • 957910|Прощаться не будем|21 июня 2018|200|300Прощаться не будем
      Дата выхода: 21 июня 2018
    • 1015192|ХОТ-ДОГ|21 июня 2018|200|300ХОТ-ДОГ
      Дата выхода: 21 июня 2018
    • 1095014|Фобия|21 июня 2018|200|300Фобия
      Дата выхода: 21 июня 2018
    • 1030023|Горы|21 июня 2018|200|300Горы
      Дата выхода: 21 июня 2018
    • 1161766|Ван Гог: Золото и лазурь|21 июня 2018|200|300Ван Гог: Золото и лазурь
      Дата выхода: 21 июня 2018
    • 938461|Убийца 2. Против всех|28 июня 2018|200|300Убийца 2. Против всех
      Дата выхода: 28 июня 2018
    • 1031219|План побега 2|28 июня 2018|200|300План побега 2
      Дата выхода: 28 июня 2018
    • 912012|Распрекрасный принц|28 июня 2018|200|300Распрекрасный принц
      Дата выхода: 28 июня 2018
    • 1015040|Во власти стихии|28 июня 2018|200|300Во власти стихии
      Дата выхода: 28 июня 2018
    • 759874|Ты водишь!|28 июня 2018|200|300Ты водишь!
      Дата выхода: 28 июня 2018
    • 1077873|Книжный клуб|28 июня 2018|200|300Книжный клуб
      Дата выхода: 28 июня 2018
    • 1047708|Инсомния|28 июня 2018|200|300Инсомния
      Дата выхода: 28 июня 2018
    Вверх