• Игры для PS4
  • Игры для PS3
  • Игры для XBOX360
  • Игры для PC
  • Игры для PS2
  • Игры для PSP
  • Для телефонов
  • Музыка
  • Книги / Журналы
  • Обои
  • Опрос
    Откуда Вы о нас узнали?
      0
    • От знакомых2,1,false,300,full
    • Из социальных сетей2,2,false,300,full
    • Из поисковых систем2,3,false,300,full
    • Другое2,4,false,300,full
    Статистика
    Всего онлайн -
    Гостей -
    Пользователей -
    Короли трекера
    Благодарности () Закрыть
    Месть Розовой пантеры / Revenge of the Pink Panther

    Страна: Великобритания [img]http://st.kp.yandex.net/images/flags/flag-11.gif[/img] США [img]http://st.kp.yandex.net/images/flags/flag-1.gif[/img]
    Производство: Jewel Productions Ltd., Pimlico Films, Sellers-Edwards productions
    Год выпуска: 1978
    Жанр:  комедия, криминал, детектив
    Продолжительность: 01:38:58

    Режиссер: Блейк Эдвардс
    Авторы сценария: Блейк Эдвардс, Фрэнк Уолдман, Рон Кларк

    В ролях: Питер Селлерс, Херберт Лом, Берт Квук, Дайан Кэннон, Роберт Уэббер, Тони Бекли, Роберт Лоджа, Пол Стюарт, Андре Маранн, Грэм Старк

    Описание: По Франции разносится слух, что старший инспектор Клузо погиб. Вся страна скорбит, ликует лишь один инспектор Дрейфус… Наконец-то, он избавился от ненавистного коллеги! Однако его радость быстро заканчивается. Оказалось, что смерть Клузо — всего лишь мистификация, задуманная им самим, чтобы поймать опаснейшего преступника...



    Перевод: Профессиональный (дублированный) + Профессиональный (многоголосый) + Профессиональный (двухголосый) + Авторский (одноголосый)
    Субтитры: английские (SDH)

    Качество: BDRip 720p | исходник Revenge.of.the.Pink.Panther.1978.BDRemux.1080p
    Формат: МКV
    Видео кодек: AVC
    Аудио кодек: АС3 | DTS
    Видео: 1278x544 (2.35:1), 23.976 fps, MPEG-4 AVC ~15.0 Мbps avg
    Аудио №1: 48.0 kHz, AC3 Dolby Digital, 2/0 (L,R) ch, ~192 kbps | RUS / DUB / ТНТ
    Аудио №2: 48.0 kHz, AC3 Dolby Digital, 3/2 (L,C,R,l,r) + LFE ch, ~448 kbps | RUS / МVO
    Аудио №3: 48.0 kHz, AC3 Dolby Digital, 2/0 (L,R) ch, ~192 kbps | RUS / DVO / НТВ+
    Аудио №4: 48.0 kHz, AC3 Dolby Digital, 2/0 (L,R) ch, ~192 kbps | RUS / AVO / Алексей Михалёв
    Аудио №5: 48.0 kHz, Digital Theater Systems, 3/2 (L,C,R,l,r) + LFE ch, ~1509 kbps | ENG
    Аудио №6: 48.0 kHz, Digital Theater Systems, 2/0 (L,R) ch, ~1509 kbps | ENG / Commentary
    Формат субтитров: UTF-8 Plain Text

    Дата премьеры (мир): 13 июля 1978

    [img]http://s010.radikal.ru/i313/1609/5b/ca3b75e82c69.gif[/img]

    BDRemux Info

    Уникальный идентификатор : 189189551000187359674721675407028233262 (0x8E5495075DA73FF23CC80765C9B5A42E)
    Полное имя : Revenge.of.the.Pink.Panther.1978.BDRip.720p.mkv
    Формат : Matroska
    Версия формата : Version 4 / Version 2
    Размер файла : 13,2 Гбайт
    Продолжительность : 1 ч. 38 м.
    Общий поток : 19,0 Мбит/сек
    Название фильма : Revenge.of.the.Pink.Panther.1978.BDRip.720p-porvaliparus
    Дата кодирования : UTC 2018-01-11 22:30:00
    Программа кодирования : mkvmerge v19.0.0 ("Brave Captain") 64-bit
    Библиотека кодирования : libebml v1.3.5 + libmatroska v1.4.8

    Видео
    Идентификатор : 1
    Формат : AVC
    Формат/Информация : Advanced Video Codec
    Профиль формата : High@L4.1
    Настройки формата : CABAC / 12 Ref Frames
    Параметр CABAC формата : Да
    Параметр RefFrames формата : 12 кадров
    Идентификатор кодека : V_MPEG4/ISO/AVC
    Продолжительность : 1 ч. 38 м.
    Битрейт : 15,0 Мбит/сек
    Ширина : 1278 пикселей
    Высота : 544 пикселя
    Соотношение сторон : 2,35:1
    Режим частоты кадров : Постоянный
    Частота кадров : 23,976 (24000/1001) кадра/сек
    Цветовое пространство : YUV
    Субдискретизация насыщенности : 4:2:0
    Битовая глубина : 8 бит
    Тип развёртки : Прогрессивная
    Бит/(Пиксели*Кадры) : 0.900
    Размер потока : 10,4 Гбайт (79%)
    Заголовок : Revenge.of.the.Pink.Panther.1978.BDRip.720p
    Библиотека кодирования : x264 core 152 r2851 ba24899
    Настройки программы : cabac=1 / ref=12 / deblock=1:-3:-3 / analyse=0x3:0x133 / me=umh / subme=11 / psy=1 / psy_rd=1.00:0.10 / mixed_ref=1 / me_range=32 / chroma_me=1 / trellis=2 / 8x8dct=1 / cqm=0 / deadzone=21,11 / fast_pskip=0 / chroma_qp_offset=-3 / threads=12 / lookahead_threads=3 / sliced_threads=0 / nr=0 / decimate=1 / interlaced=0 / bluray_compat=0 / constrained_intra=0 / bframes=10 / b_pyramid=2 / b_adapt=2 / b_bias=0 / direct=3 / weightb=1 / open_gop=0 / weightp=2 / keyint=250 / keyint_min=23 / scenecut=40 / intra_refresh=0 / rc_lookahead=40 / rc=2pass / mbtree=0 / bitrate=15000 / ratetol=1.0 / qcomp=0.60 / qpmin=0 / qpmax=69 / qpstep=4 / cplxblur=20.0 / qblur=0.5 / vbv_maxrate=50000 / vbv_bufsize=62500 / nal_hrd=none / filler=0 / ip_ratio=1.40 / pb_ratio=1.30 / aq=1:0.80
    Default : Да
    Forced : Нет

    Аудио #1
    Идентификатор : 2
    Формат : AC-3
    Формат/Информация : Audio Coding 3
    Идентификатор кодека : A_AC3
    Продолжительность : 1 ч. 38 м.
    Вид битрейта : Постоянный
    Битрейт : 192 Кбит/сек
    Каналы : 2 канала
    Расположение каналов : Front: L R
    Частота : 48,0 КГц
    Частота кадров : 31,250 кадров/сек (1536 SPF)
    Битовая глубина : 16 бит
    Метод сжатия : С потерями
    Размер потока : 136 Мбайт (1%)
    Заголовок : Dub [ТНТ]
    Язык : Russian
    Default : Да
    Forced : Нет

    Аудио #2
    Идентификатор : 3
    Формат : AC-3
    Формат/Информация : Audio Coding 3
    Идентификатор кодека : A_AC3
    Продолжительность : 1 ч. 38 м.
    Вид битрейта : Постоянный
    Битрейт : 448 Кбит/сек
    Каналы : 6 каналов
    Расположение каналов : Front: L C R, Side: L R, LFE
    Частота : 48,0 КГц
    Частота кадров : 31,250 кадров/сек (1536 SPF)
    Битовая глубина : 16 бит
    Метод сжатия : С потерями
    Размер потока : 317 Мбайт (2%)
    Заголовок : MVO
    Язык : Russian
    Default : Нет
    Forced : Нет

    Аудио #3
    Идентификатор : 4
    Формат : AC-3
    Формат/Информация : Audio Coding 3
    Идентификатор кодека : A_AC3
    Продолжительность : 1 ч. 38 м.
    Вид битрейта : Постоянный
    Битрейт : 192 Кбит/сек
    Каналы : 2 канала
    Расположение каналов : Front: L R
    Частота : 48,0 КГц
    Частота кадров : 31,250 кадров/сек (1536 SPF)
    Битовая глубина : 16 бит
    Метод сжатия : С потерями
    Размер потока : 136 Мбайт (1%)
    Заголовок : DVO [НТВ+]
    Язык : Russian
    Default : Нет
    Forced : Нет

    Аудио #4
    Идентификатор : 5
    Формат : AC-3
    Формат/Информация : Audio Coding 3
    Идентификатор кодека : A_AC3
    Продолжительность : 1 ч. 38 м.
    Вид битрейта : Постоянный
    Битрейт : 192 Кбит/сек
    Каналы : 2 канала
    Расположение каналов : Front: L R
    Частота : 48,0 КГц
    Частота кадров : 31,250 кадров/сек (1536 SPF)
    Битовая глубина : 16 бит
    Метод сжатия : С потерями
    Размер потока : 136 Мбайт (1%)
    Заголовок : AVO [А. Михалев]
    Язык : Russian
    Default : Нет
    Forced : Нет

    Аудио #5
    Идентификатор : 6
    Формат : DTS
    Формат/Информация : Digital Theater Systems
    Идентификатор кодека : A_DTS
    Продолжительность : 1 ч. 38 м.
    Вид битрейта : Постоянный
    Битрейт : 1509 Кбит/сек
    Каналы : 6 каналов
    Расположение каналов : Front: L C R, Side: L R, LFE
    Частота : 48,0 КГц
    Частота кадров : 93,750 кадра/сек (512 SPF)
    Битовая глубина : 24 бит
    Метод сжатия : С потерями
    Размер потока : 1,04 Гбайт (8%)
    Язык : English
    Default : Нет
    Forced : Нет

    Аудио #6
    Идентификатор : 7
    Формат : DTS
    Формат/Информация : Digital Theater Systems
    Идентификатор кодека : A_DTS
    Продолжительность : 1 ч. 38 м.
    Вид битрейта : Постоянный
    Битрейт : 1509 Кбит/сек
    Каналы : 2 канала
    Расположение каналов : Front: L R
    Частота : 48,0 КГц
    Частота кадров : 93,750 кадра/сек (512 SPF)
    Битовая глубина : 24 бит
    Метод сжатия : С потерями
    Размер потока : 1,04 Гбайт (8%)
    Заголовок : Commentary by author and film historian William Patrick Maynard
    Язык : English
    Default : Нет
    Forced : Нет

    Текст
    Идентификатор : 8
    Формат : UTF-8
    Идентификатор кодека : S_TEXT/UTF8
    Идентификатор кодека/Информация : UTF-8 Plain Text
    Продолжительность : 1 ч. 37 м.
    Битрейт : 58 бит/сек
    ElementCount : 1238
    Размер потока : 41,6 Кбайт (0%)
    Заголовок : SDH
    Язык : English
    Default : Нет
    Forced : Нет

    Меню
    00:00:00.000 : en:Chapter 1
    00:11:46.164 : en:Chapter 2
    00:19:25.373 : en:Chapter 3
    00:26:16.533 : en:Chapter 4
    00:34:51.423 : en:Chapter 5
    00:44:37.592 : en:Chapter 6
    00:52:39.823 : en:Chapter 7
    01:01:04.578 : en:Chapter 8
    01:09:27.372 : en:Chapter 9
    01:17:24.473 : en:Chapter 10
    01:25:02.389 : en:Chapter 11
    01:31:18.056 : en:Chapter 12Свернуть


    Скриншоты
    [screen]http://lostpic.net/images/2018/01/12/7139e18620011490e17067b3c6dcdb50.png[/screen][screen]http://lostpic.net/images/2018/01/12/7390212ac18a0f74de85e3fea99e04d3.png[/screen][screen]http://lostpic.net/images/2018/01/12/eab2434ed80a3ed6e55f9b56aef0c7f3.png[/screen]Свернуть
    Похожие раздачи Искать похожие
    Инструкция по скачиванию
     1  Качаем uTorrent версии 2.0 и выше
     2  После установки, жмем выше под постером на ссылку Скачать [MediaGet] или Скачать .torrent
     3  Открываем скачанный файл через соответствующий клиент: MediaGet или uTorrent
     4  Ждем пока подключатся участники
     5  Качаем
    Комментарии о  Месть Розовой пантеры / Revenge of the Pink Panther | BDRip 720p 
    Ближайшее в кино
    Вверх