• Игры для PS4
  • Игры для PS3
  • Игры для XBOX360
  • Игры для PC
  • Игры для PS2
  • Игры для PSP
  • Для телефонов
  • Музыка
  • Книги / Журналы
  • Обои
  • Опрос
    Удобен ли сайт в использовании?
      0
    • Очень удобен, все понятно1,1,false,300,full
    • Удобен1,2,false,300,full
    • Средне1,3,false,300,full
    • Неудобен, трудно ориентироваться1,4,false,300,full
    • Совсем неудобен1,5,false,300,full
    Статистика
    Всего онлайн -
    Гостей -
    Пользователей -
    Короли трекера
    Благодарности () Закрыть
    Оригинальное название: Чародеи
    Год выпуска: 1982
    Жанр:  Музыкальный, комедия, экранизация
    Выпущено: СССР, Гостелерадио, Одесская киностудия
    Режиссер: Константин Бромберг
    В ролях: Александра Яковлева, Александр Абдулов, Екатерина Васильева (I), Валентин Гафт, Семён Фарада, Валерий Золотухин, Эммануил Виторган, Михаил Светин, Роман Филиппов, Анна Ашимова, Евгений Весник, Евгения Абрамова, Ирина Бельгер, Валентина Смоляницкая, Лилия Макеева

    Описание: Новогодняя сказка о том, что настоящая любовь может творить чудеса. В институте "НУИНУ" (научный универсальный институт необыкновенных услуг) кипит бурная работа по изготовлению волшебной палочки. Презентация изобретения намечена на 31 декабря, как раз в Новогодний вечер. Но тут в дело вступают противники директора института, преследующие свои цели. Сотрудница института красавица Алёна собирается замуж за Ивана. Тайно влюблённый в неё заместитель директора Сатанеев оговаривает Алёну перед директором и та заколдовывает её, замораживая чувства к жениху. Чтобы вернуть её, Ивану нужно поцеловать Алёну до наступления Нового года.

    Продолжительность: 2 x ~ 01:16:15
    Язык: Русский

    Файл
    Формат: MKV
    Качество: HDTVRip-AVC
    Видео: MPEG-4 AVC, 784x576 (4:3), 25.000 fps, ~2800 kbps avg, 0.245 bit/pixel
    Аудио: 48 kHz, AC3 Dolby Digital, 2.0 ch, ~192 kbps

    МИ

    x264 [info]: frame I:661 Avg QP:16.67 size:101902
    x264 [info]: frame P:27392 Avg QP:19.72 size: 33749
    x264 [info]: frame B:77442 Avg QP:21.81 size: 6023
    -----------------------------------------------------
    General
    Unique ID                                : 182479843553222097317722203571905530703 (0x894856E91EA6E9A19E0575DBA6668B4F)
    Complete name                            : D:Charodei.1982.HDTVRip.AVC.ExKinoRayCharodei.1.1982.HDTVRip.AVC.ExKinoRay.mkv
    Format                                   : Matroska
    Format version                           : Version 2
    File size                                : 1.45 GiB
    Duration                                 : 1 h 10 min
    Overall bit rate                         : 2 958 kb/s
    Movie name                               : Чародеи 1982 from ExKinoRay
    Encoded date                             : UTC 2018-01-12 04:24:10
    Writing application                      : mkvmerge v5.6.0 ("Kenya Kane") built on May 27 2012 16:44:04
    Writing library                          : libebml v1.2.3 + libmatroska v1.3.0

    Video
    ID                                       : 1
    Format                                   : AVC
    Format/Info                              : Advanced Video Codec
    Format profile                           : High@L4.1
    Format settings, CABAC                   : Yes
    Format settings, ReFrames                : 10 frames
    Codec ID                                 : V_MPEG4/ISO/AVC
    Duration                                 : 1 h 10 min
    Bit rate                                 : 2 765 kb/s
    Width                                    : 784 pixels
    Height                                   : 576 pixels
    Display aspect ratio                     : 4:3
    Frame rate mode                          : Constant
    Frame rate                               : 25.000 FPS
    Color space                              : YUV
    Chroma subsampling                       : 4:2:0
    Bit depth                                : 8 bits
    Scan type                                : Progressive
    Bits/(Pixel*Frame)                       : 0.245
    Stream size                              : 1.33 GiB (92%)
    Title                                    : Enigma
    Writing library                          : x264 core 152 r2851 ba24899
    Encoding settings                        : cabac=1 / ref=10 / deblock=1:-2:-2 / analyse=0x3:0x113 / me=umh / subme=10 / psy=1 / psy_rd=1.03:0.10 / mixed_ref=1 / me_range=32 / chroma_me=1 / trellis=2 / 8x8dct=1 / cqm=0 / deadzone=21,11 / fast_pskip=0 / chroma_qp_offset=-3 / threads=12 / lookahead_threads=3 / sliced_threads=0 / nr=0 / decimate=0 / interlaced=0 / bluray_compat=0 / constrained_intra=0 / bframes=10 / b_pyramid=2 / b_adapt=2 / b_bias=0 / direct=3 / weightb=1 / open_gop=0 / weightp=2 / keyint=250 / keyint_min=25 / scenecut=40 / intra_refresh=0 / rc_lookahead=40 / rc=2pass / mbtree=0 / bitrate=2765 / ratetol=1.0 / qcomp=0.60 / qpmin=0 / qpmax=51 / qpstep=4 / cplxblur=20.0 / qblur=0.5 / vbv_maxrate=50000 / vbv_bufsize=62500 / nal_hrd=none / filler=0 / ip_ratio=1.40 / pb_ratio=1.30 / aq=1:0.90
    Language                                 : English
    Default                                  : Yes
    Forced                                   : No
    Color range                              : Limited
    Color primaries                          : BT.709
    Transfer characteristics                 : BT.709
    Matrix coefficients                      : BT.709

    Audio
    ID                                       : 2
    Format                                   : AC-3
    Format/Info                              : Audio Coding 3
    Mode extension                           : CM (complete main)
    Format settings, Endianness              : Big
    Codec ID                                 : A_AC3
    Duration                                 : 1 h 10 min
    Bit rate mode                            : Constant
    Bit rate                                 : 192 kb/s
    Channel(s)                               : 2 channels
    Channel positions                        : Front: L R
    Sampling rate                            : 48.0 kHz
    Frame rate                               : 31.250 FPS (1536 spf)
    Compression mode                         : Lossy
    Stream size                              : 96.6 MiB (6%)
    Language                                 : Russian
    Default                                  : Yes
    Forced                                   : No

    Свернуть


    [img]http://d.radikal.ru/d09/1801/47/56a21aed9a70t.jpg[/img][img]http://a.radikal.ru/a18/1801/eb/820d4bf30dc1t.jpg[/img][img]http://d.radikal.ru/d37/1801/09/b8e3469a860ft.jpg[/img][img]http://a.radikal.ru/a38/1801/3c/406cebc889aft.jpg[/img][img]http://a.radikal.ru/a15/1801/0d/6009d74a727at.jpg[/img][img]http://a.radikal.ru/a13/1801/de/fa89c8ada4b5t.jpg[/img]
    Похожие раздачи Искать похожие
    Инструкция по скачиванию
     1  Качаем uTorrent версии 2.0 и выше
     2  После установки, жмем выше под постером на ссылку Скачать [MediaGet] или Скачать .torrent
     3  Открываем скачанный файл через соответствующий клиент: MediaGet или uTorrent
     4  Ждем пока подключатся участники
     5  Качаем
    Комментарии о  Чародеи | HDTVRip-AVC 
    Ближайшее в кино
    Вверх