• Игры для PS4
  • Игры для PS3
  • Игры для XBOX360
  • Игры для PC
  • Игры для PS2
  • Игры для PSP
  • Для телефонов
  • Музыка
  • Книги/Журналы
  • Обои
  •  
    Опрос
    Откуда Вы о нас узнали?
      0
    • От знакомых2,1,false,300,full
    • Из социальных сетей2,2,false,300,full
    • Из поисковых систем2,3,false,300,full
    • Другое2,4,false,300,full
    Статистика
    Загрузка...
    Встреча Владимира Путина с руководителями российских СМИ [11.01] | WEB-DL 720p
    Статус  Проверено
    В закладки
    Модератор: Max

    Встреча Владимира Путина с руководителями российских СМИ [11.01] | WEB-DL 720p [Сериалы 2018] скачать торрентом/torrent бесплатно

    Год выхода
    Категории
    Язык
    Закачал
    Аноним | 12 января в 12ч 08м 12с
    Раздел
    Отзывов
    0
    Раздают: 0 Качают: 0 Скачали: 0 Размер: 1.4 GB
    Инфо о раздаче | Благодарности |
    0/5
    0
    0 5 0
    Поддержи нас — расскажи друзьям!
    Orbitum
    Новый интернет-браузер Быстрее загружает сайты Экономит интернет—трафик Меняет оформление страницы ВК Блокирует всю рекламу на сайтах Загружает торренты как

    µTorrent

    клиент
    Объеденяет все твои чаты из соц. сетей в один Проигрывает твою музыку не заходя во ВКонтакте
    Скачать и многое другое... Подробности на сайте производителя
    Информация о фильме
    Название: Встреча Владимира Путина с руководителями российских СМИ
    Год выхода: 11.01.2018
    Жанр: Документальный, информационная передача

    О фильме:
    В преддверии Дня российской печати, отмечаемого 13 января, в редакции газеты «Комсомольская правда» состоялась встреча Владимира Путина с руководителями российских печатных средств массовой информации и информационных агентств. Обсуждались актуальные вопросы отрасли. Президент поздравил представителей СМИ с профессиональным праздником.

    Официальный сайт

    Страна: Россия
    Студия: Президент.РФ
    Продолжительность: 00:48:43
    Перевод: Не требуется

    Файл
    Кодек: h.264
    Качество: WEB-DL
    Видео: AVC MPEG-4, 1280x720 (16:9), ~4000 Kbps, 25 fps
    Звук: AAC, 2 ch, 128 Kbps

    Mediainfo

    General
    Unique ID                   : 66667291660361827565294848081332371279 (0x3227A740C3E57330D3EA5A0E16197F4F)
    Complete name               : D:FilmВстреча Владимира Путина с руководителями российских СМИ 11.01.2018.mkv
    Format                      : Matroska
    Format version              : Version 4 / Version 2
    File size                   : 1.40 GiB
    Duration                    : 48 min 43 s
    Overall bit rate            : 4 125 kb/s
    Encoded date                : UTC 2018-01-11 21:31:54
    Writing application         : mkvmerge v19.0.0 ("Brave Captain") 64-bit
    Writing library             : libebml v1.3.5 + libmatroska v1.4.8
    Cover                       : Yes
    Attachments                 : cover.png

    Video
    ID                          : 1
    Format                      : AVC
    Format/Info                 : Advanced Video Codec
    Format profile              : High@L4.2
    Format settings             : CABAC / 4 Ref Frames
    Format settings, CABAC      : Yes
    Format settings, RefFrames  : 4 frames
    Codec ID                    : V_MPEG4/ISO/AVC
    Duration                    : 48 min 43 s
    Bit rate                    : 3 992 kb/s
    Width                       : 1 280 pixels
    Height                      : 720 pixels
    Display aspect ratio        : 16:9
    Frame rate mode             : Constant
    Frame rate                  : 25.000 FPS
    Color space                 : YUV
    Chroma subsampling          : 4:2:0
    Bit depth                   : 8 bits
    Scan type                   : Progressive
    Bits/(Pixel*Frame)          : 0.173
    Stream size                 : 1.36 GiB (97%)
    Language                    : Russian
    Default                     : Yes
    Forced                      : No
    Color range                 : Limited
    Color primaries             : BT.709
    Transfer characteristics    : BT.709
    Matrix coefficients         : BT.709

    Audio
    ID                          : 2
    Format                      : AAC
    Format/Info                 : Advanced Audio Codec
    Format profile              : LC
    Codec ID                    : A_AAC-2
    Duration                    : 48 min 43 s
    Bit rate                    : 128 kb/s
    Channel(s)                  : 2 channels
    Channel positions           : Front: L R
    Sampling rate               : 48.0 kHz
    Frame rate                  : 46.875 FPS (1024 SPF)
    Compression mode            : Lossy
    Delay relative to video     : -40 ms
    Stream size                 : 44.6 MiB (3%)
    Language                    : Russian
    Default                     : Yes
    Forced                      : No



    Еще похожие »

    Как скачать?
    1. Качаем UTorrent версии 2.0 и выше отсюда
    2. После установки, жмем на ссылку Скачать торрент.
    3. Открываем его через utorrent.
    4. Ждем пока подключатся участники.
    5. Качаем.


    Комментарии о Встреча Владимира Путина с руководителями российских СМИ [11.01] | WEB-DL 720p
    Добавлять комментарии могут только зарегистрированные пользователи

    Зарегистрироваться или Войти


    Ближайшее в кино
    • 8 подруг Оушена дата выхода 21 июня 20188 подруг Оушена
      Дата выхода: 21 июня 2018
    • 939579|Сага о чудовище. Сумерки|21 июня 2018|200|300Сага о чудовище. Сумерки
      Дата выхода: 21 июня 2018
    • 1045170|Ночная смена|21 июня 2018|200|300Ночная смена
      Дата выхода: 21 июня 2018
    • 957910|Прощаться не будем|21 июня 2018|200|300Прощаться не будем
      Дата выхода: 21 июня 2018
    • 1015192|ХОТ-ДОГ|21 июня 2018|200|300ХОТ-ДОГ
      Дата выхода: 21 июня 2018
    • 1095014|Фобия|21 июня 2018|200|300Фобия
      Дата выхода: 21 июня 2018
    • 1030023|Горы|21 июня 2018|200|300Горы
      Дата выхода: 21 июня 2018
    • 1161766|Ван Гог: Золото и лазурь|21 июня 2018|200|300Ван Гог: Золото и лазурь
      Дата выхода: 21 июня 2018
    • 938461|Убийца 2. Против всех|28 июня 2018|200|300Убийца 2. Против всех
      Дата выхода: 28 июня 2018
    • 1031219|План побега 2|28 июня 2018|200|300План побега 2
      Дата выхода: 28 июня 2018
    • 912012|Распрекрасный принц|28 июня 2018|200|300Распрекрасный принц
      Дата выхода: 28 июня 2018
    • 1015040|Во власти стихии|28 июня 2018|200|300Во власти стихии
      Дата выхода: 28 июня 2018
    • 759874|Ты водишь!|28 июня 2018|200|300Ты водишь!
      Дата выхода: 28 июня 2018
    • 1077873|Книжный клуб|28 июня 2018|200|300Книжный клуб
      Дата выхода: 28 июня 2018
    • 1047708|Инсомния|28 июня 2018|200|300Инсомния
      Дата выхода: 28 июня 2018
    Вверх