• Игры для PS3
  • Игры для XBOX360
  • Игры для PC
  • Игры для PS2
  • Игры для PSP
  • Для телефонов
  • Музыка
  • Книги/Журналы
  • Обои
  •  
    Опрос
    Откуда Вы о нас узнали?
      0
    • От знакомых2,1,false,300,full
    • Из социальных сетей2,2,false,300,full
    • Из поисковых систем2,3,false,300,full
    • Другое2,4,false,300,full
    Статистика
    Загрузка...
    Евгений Федоров о ЦРУ и песнях Цоя | WEBRip 720p
    Статус  Проверено
    В закладки
    Модератор: Max

    Евгений Федоров о ЦРУ и песнях Цоя | WEBRip 720p [Сериалы 2014] скачать торрентом/torrent бесплатно

    Год выхода
    Категории
    Язык
    Закачал
    Max | 12 января 2018 в 14ч 33м 11с
    Раздел
    Отзывов
    0
    Раздают: 14 Качают: 4 Скачали: 22 Размер: 1.56 GB
    Файлы (1) | Благодарности | Хэш код |
    0/5
    0
    Поддержи нас — расскажи друзьям!
    Orbitum
    Новый интернет-браузер Быстрее загружает сайты Экономит интернет—трафик Меняет оформление страницы ВК Блокирует всю рекламу на сайтах Загружает торренты как

    µTorrent

    клиент
    Объеденяет все твои чаты из соц. сетей в один Проигрывает твою музыку не заходя во ВКонтакте
    Скачать и многое другое... Подробности на сайте производителя
    Информация о фильме
    Название: Евгений Федоров о ЦРУ и песнях Цоя
    Год выхода: 2014
    Жанр: Документальный
    В ролях: Мария Катасонова, Александр Богомолов, Артем Войтенков, Евгений Федоров

    О фильме:
    В апреле 2014 г. депутат Госдумы России Евгений Федоров рассказал о своем разговоре с бывшими сотрудниками КГБ, которые в 90-е годы исследовали творчество Виктора Цоя и группы «Кино» и выяснили, что некоторые новые песни кумира написаны в Голливуде.
    Сразу же поднялась волна критики депутата Федорова. Центральные телеканалы по нескольку раз сказали, что это полная глупость, что об этом вообще не надо говорить и дали негативную оценку депутату.
    Тем не менее данная тема вот уже несколько лет продолжает держаться в новостях. Многие СМИ заменили сказанное Федоровым иными своими смыслами. Это видео представляет первоисточник - то, что говорил действительный государственный советник РФ Евгений Федоров.
    В видеоматериале использована песня Виктора Цоя «Перемен».

    Страна: Россия
    Студия: Познавательное ТВ
    Продолжительность: 00:38:21
    Перевод: Не требуется

    Файл
    Кодек: h.264
    Качество: WEBRip 720p
    Видео: AVC MPEG-4, 1280x720 (16:9), ~5500 Kbps, 25 fps
    Звук: AAC, 2 ch, 256 Kbps

    Mediainfo

    General
    Unique ID                   : 286837992346322718436134465146852026281 (0xD7CAFCE4B49FE3E15DE99EC63DD927A9)
    Complete name               : D:FilmЕвгений Федоров о ЦРУ и песнях Цоя.mkv
    Format                      : Matroska
    Format version              : Version 4 / Version 2
    File size                   : 1.56 GiB
    Duration                    : 38 min 21 s
    Overall bit rate mode       : Variable
    Overall bit rate            : 5 837 kb/s
    Encoded date                : UTC 2018-01-11 14:41:05
    Writing application         : mkvmerge v19.0.0 ("Brave Captain") 64-bit
    Writing library             : libebml v1.3.5 + libmatroska v1.4.8
    Cover                       : Yes
    Attachments                 : cover.png

    Video
    ID                          : 2
    Format                      : AVC
    Format/Info                 : Advanced Video Codec
    Format profile              : High@L4
    Format settings             : CABAC / 2 Ref Frames
    Format settings, CABAC      : Yes
    Format settings, RefFrames  : 2 frames
    Format settings, GOP        : M=2, N=13
    Codec ID                    : V_MPEG4/ISO/AVC
    Duration                    : 38 min 21 s
    Bit rate mode               : Variable
    Bit rate                    : 5 576 kb/s
    Maximum bit rate            : 6 400 kb/s
    Width                       : 1 280 pixels
    Height                      : 720 pixels
    Display aspect ratio        : 16:9
    Frame rate mode             : Constant
    Frame rate                  : 25.000 FPS
    Color space                 : YUV
    Chroma subsampling          : 4:2:0
    Bit depth                   : 8 bits
    Scan type                   : Progressive
    Bits/(Pixel*Frame)          : 0.242
    Stream size                 : 1.49 GiB (96%)
    Language                    : Russian
    Default                     : Yes
    Forced                      : No

    Audio
    ID                          : 1
    Format                      : AAC
    Format/Info                 : Advanced Audio Codec
    Format profile              : LC
    Codec ID                    : A_AAC-2
    Duration                    : 38 min 20 s
    Bit rate                    : 256 kb/s
    Channel(s)                  : 2 channels
    Channel positions           : Front: L R
    Sampling rate               : 48.0 kHz
    Frame rate                  : 46.875 FPS (1024 SPF)
    Compression mode            : Lossy
    Stream size                 : 70.2 MiB (4%)
    Language                    : Russian
    Default                     : Yes
    Forced                      : No



    Еще похожие »

    Как скачать?
    1. Качаем UTorrent версии 2.0 и выше отсюда
    2. После установки, жмем на ссылку Скачать торрент.
    3. Открываем его через utorrent.
    4. Ждем пока подключатся участники.
    5. Качаем.


    Комментарии о Евгений Федоров о ЦРУ и песнях Цоя | WEBRip 720p
    Добавлять комментарии могут только зарегистрированные пользователи

    Зарегистрироваться или Войти


    Ближайшее в кино
    • Пианистка дата выхода 18 января 2018Пианистка
      Дата выхода: 18 января 2018
    • Форма воды дата выхода 18 января 2018Форма воды
      Дата выхода: 18 января 2018
    • Астрал 4: Последний ключ дата выхода 18 января 2018Астрал 4: Последний ключ
      Дата выхода: 18 января 2018
    • Темные времена дата выхода 18 января 2018Темные времена
      Дата выхода: 18 января 2018
    • Скиф дата выхода 18 января 2018Скиф
      Дата выхода: 18 января 2018
    • Приключения Паддингтона 2 дата выхода 18 января 2018Приключения Паддингтона 2
      Дата выхода: 18 января 2018
    • Карп отмороженный дата выхода 18 января 2018Карп отмороженный
      Дата выхода: 18 января 2018
    • Мешок без дна дата выхода 18 января 2018Мешок без дна
      Дата выхода: 18 января 2018
    • МУЛЬТ в кино. Выпуск №67. Зимний карнавал дата выхода 20 января 2018МУЛЬТ в кино. Выпуск №67. Зимний карнавал
      Дата выхода: 20 января 2018
    • Бегущий в лабиринте: Лекарство от смерти дата выхода 25 января 2018Бегущий в лабиринте: Лекарство от смерти
      Дата выхода: 25 января 2018
    • Смерть Сталина дата выхода 25 января 2018Смерть Сталина
      Дата выхода: 25 января 2018
    • Zомбоящик дата выхода 25 января 2018Zомбоящик
      Дата выхода: 25 января 2018
    • Хэппи-энд дата выхода 25 января 2018Хэппи-энд
      Дата выхода: 25 января 2018
    • Побег из Рио дата выхода 25 января 2018Побег из Рио
      Дата выхода: 25 января 2018
    • Девушка в тумане дата выхода 25 января 2018Девушка в тумане
      Дата выхода: 25 января 2018
    Вверх