• Игры для PS4
  • Игры для PS3
  • Игры для XBOX360
  • Игры для PC
  • Игры для PS2
  • Игры для PSP
  • Для телефонов
  • Музыка
  • Книги/Журналы
  • Обои
  •  
    Опрос
    Удобен ли сайт в использовании?
      0
    • Очень удобен, все понятно1,1,false,300,full
    • Удобен1,2,false,300,full
    • Средне1,3,false,300,full
    • Неудобен, трудно ориентироваться1,4,false,300,full
    • Совсем неудобен1,5,false,300,full
    Статистика
    Загрузка...
    Евгений Федоров о ЦРУ и песнях Цоя | WEBRip 720p
    Статус  Проверено
    В закладки
    Модератор: Max

    Евгений Федоров о ЦРУ и песнях Цоя | WEBRip 720p [Сериалы 2014] скачать торрентом/torrent бесплатно

    Год выхода
    Категории
    Язык
    Закачал
    Max | 12 января в 14ч 33м 11с
    Раздел
    Отзывов
    0
    Раздают: 0 Качают: 0 Скачали: 0 Размер: 1.56 GB
    Инфо о раздаче | Благодарности |
    0/5
    0
    0 5 0
    Поддержи нас — расскажи друзьям!
    Orbitum
    Новый интернет-браузер Быстрее загружает сайты Экономит интернет—трафик Меняет оформление страницы ВК Блокирует всю рекламу на сайтах Загружает торренты как

    µTorrent

    клиент
    Объеденяет все твои чаты из соц. сетей в один Проигрывает твою музыку не заходя во ВКонтакте
    Скачать и многое другое... Подробности на сайте производителя
    Информация о фильме
    Название: Евгений Федоров о ЦРУ и песнях Цоя
    Год выхода: 2014
    Жанр: Документальный
    В ролях: Мария Катасонова, Александр Богомолов, Артем Войтенков, Евгений Федоров

    О фильме:
    В апреле 2014 г. депутат Госдумы России Евгений Федоров рассказал о своем разговоре с бывшими сотрудниками КГБ, которые в 90-е годы исследовали творчество Виктора Цоя и группы «Кино» и выяснили, что некоторые новые песни кумира написаны в Голливуде.
    Сразу же поднялась волна критики депутата Федорова. Центральные телеканалы по нескольку раз сказали, что это полная глупость, что об этом вообще не надо говорить и дали негативную оценку депутату.
    Тем не менее данная тема вот уже несколько лет продолжает держаться в новостях. Многие СМИ заменили сказанное Федоровым иными своими смыслами. Это видео представляет первоисточник - то, что говорил действительный государственный советник РФ Евгений Федоров.
    В видеоматериале использована песня Виктора Цоя «Перемен».

    Страна: Россия
    Студия: Познавательное ТВ
    Продолжительность: 00:38:21
    Перевод: Не требуется

    Файл
    Кодек: h.264
    Качество: WEBRip 720p
    Видео: AVC MPEG-4, 1280x720 (16:9), ~5500 Kbps, 25 fps
    Звук: AAC, 2 ch, 256 Kbps

    Mediainfo

    General
    Unique ID                   : 286837992346322718436134465146852026281 (0xD7CAFCE4B49FE3E15DE99EC63DD927A9)
    Complete name               : D:FilmЕвгений Федоров о ЦРУ и песнях Цоя.mkv
    Format                      : Matroska
    Format version              : Version 4 / Version 2
    File size                   : 1.56 GiB
    Duration                    : 38 min 21 s
    Overall bit rate mode       : Variable
    Overall bit rate            : 5 837 kb/s
    Encoded date                : UTC 2018-01-11 14:41:05
    Writing application         : mkvmerge v19.0.0 ("Brave Captain") 64-bit
    Writing library             : libebml v1.3.5 + libmatroska v1.4.8
    Cover                       : Yes
    Attachments                 : cover.png

    Video
    ID                          : 2
    Format                      : AVC
    Format/Info                 : Advanced Video Codec
    Format profile              : High@L4
    Format settings             : CABAC / 2 Ref Frames
    Format settings, CABAC      : Yes
    Format settings, RefFrames  : 2 frames
    Format settings, GOP        : M=2, N=13
    Codec ID                    : V_MPEG4/ISO/AVC
    Duration                    : 38 min 21 s
    Bit rate mode               : Variable
    Bit rate                    : 5 576 kb/s
    Maximum bit rate            : 6 400 kb/s
    Width                       : 1 280 pixels
    Height                      : 720 pixels
    Display aspect ratio        : 16:9
    Frame rate mode             : Constant
    Frame rate                  : 25.000 FPS
    Color space                 : YUV
    Chroma subsampling          : 4:2:0
    Bit depth                   : 8 bits
    Scan type                   : Progressive
    Bits/(Pixel*Frame)          : 0.242
    Stream size                 : 1.49 GiB (96%)
    Language                    : Russian
    Default                     : Yes
    Forced                      : No

    Audio
    ID                          : 1
    Format                      : AAC
    Format/Info                 : Advanced Audio Codec
    Format profile              : LC
    Codec ID                    : A_AAC-2
    Duration                    : 38 min 20 s
    Bit rate                    : 256 kb/s
    Channel(s)                  : 2 channels
    Channel positions           : Front: L R
    Sampling rate               : 48.0 kHz
    Frame rate                  : 46.875 FPS (1024 SPF)
    Compression mode            : Lossy
    Stream size                 : 70.2 MiB (4%)
    Language                    : Russian
    Default                     : Yes
    Forced                      : No



    Еще похожие »

    Как скачать?
    1. Качаем UTorrent версии 2.0 и выше отсюда
    2. После установки, жмем на ссылку Скачать торрент.
    3. Открываем его через utorrent.
    4. Ждем пока подключатся участники.
    5. Качаем.


    Комментарии о Евгений Федоров о ЦРУ и песнях Цоя | WEBRip 720p
    Добавлять комментарии могут только зарегистрированные пользователи

    Зарегистрироваться или Войти


    Ближайшее в кино
    • Примадонна дата выхода 18 октября 2018Примадонна
      Дата выхода: 18 октября 2018
    • 885317|Ученик чудовища|18 октября 2018|200|300Ученик чудовища
      Дата выхода: 18 октября 2018
    • 472369|Хэллоуин|18 октября 2018|200|300Хэллоуин
      Дата выхода: 18 октября 2018
    • 1005852|Дикая жизнь|18 октября 2018|200|300Дикая жизнь
      Дата выхода: 18 октября 2018
    • 696499|Галвестон|18 октября 2018|200|300Галвестон
      Дата выхода: 18 октября 2018
    • 1111886|Лукас|18 октября 2018|200|300Лукас
      Дата выхода: 18 октября 2018
    • 1045555|Вечная жизнь Александра Христофорова|18 октября 2018|200|300Вечная жизнь Александра Христофорова
      Дата выхода: 18 октября 2018
    • 1112943|Шестой пост|18 октября 2018|200|300Шестой пост
      Дата выхода: 18 октября 2018
    • 1044626|Тайна магазина игрушек|18 октября 2018|200|300Тайна магазина игрушек
      Дата выхода: 18 октября 2018
    • 629086|Лягушонок Риббит|18 октября 2018|200|300Лягушонок Риббит
      Дата выхода: 18 октября 2018
    • 991817|Закат|18 октября 2018|200|300Закат
      Дата выхода: 18 октября 2018
    • 1020860|Безупречная жизнь|18 октября 2018|200|300Безупречная жизнь
      Дата выхода: 18 октября 2018
    • 968603|Зимние братья|18 октября 2018|200|300Зимние братья
      Дата выхода: 18 октября 2018
    • 1008554|Слоны могут играть в футбол|18 октября 2018|200|300Слоны могут играть в футбол
      Дата выхода: 18 октября 2018
    • 939290|Прогулка по Риму|18 октября 2018|200|300Прогулка по Риму
      Дата выхода: 18 октября 2018
    Вверх