• Игры для PS4
  • Игры для PS3
  • Игры для XBOX360
  • Игры для PC
  • Игры для PS2
  • Игры для PSP
  • Для телефонов
  • Музыка
  • Книги/Журналы
  • Обои
  •  
    Опрос
    Удобен ли сайт в использовании?
      0
    • Очень удобен, все понятно1,1,false,300,full
    • Удобен1,2,false,300,full
    • Средне1,3,false,300,full
    • Неудобен, трудно ориентироваться1,4,false,300,full
    • Совсем неудобен1,5,false,300,full
    Статистика
    Загрузка...
    Нелл / Nell | WEB-DLRip 720p
    Статус  Проверено
    В закладки
    Модератор: Max

    Нелл / Nell | WEB-DLRip 720p [Фильмы 1994] скачать торрентом/torrent бесплатно

    Год выхода
    Категории
    Язык
    Закачал
    Max | 12 января в 17ч 26м 50с
    Раздел
    Отзывов
    0
    Раздают: 1 Качают: 0 Скачали: 1 Размер: 7.03 GB
    Инфо о раздаче | Благодарности |
    0/5
    0
    0 5 0
    Поддержи нас — расскажи друзьям!
    Orbitum
    Новый интернет-браузер Быстрее загружает сайты Экономит интернет—трафик Меняет оформление страницы ВК Блокирует всю рекламу на сайтах Загружает торренты как

    µTorrent

    клиент
    Объеденяет все твои чаты из соц. сетей в один Проигрывает твою музыку не заходя во ВКонтакте
    Скачать и многое другое... Подробности на сайте производителя
    Информация о фильме
    Название: Нелл
    Оригинальное название: Nell
    Год выпуска: 1994
    Жанр:  драма, экранизация
    Режиссер: Майкл Эптед
    В ролях: Джоди Фостер, Лиам Нисон, Наташа Ричардсон, Ричард Либертини, Ник Сирси, Робин Маллинз, Джереми Дэвис, О’Нил Комптон, Хезер М. Бомба, Марианн Е. Бомба, Шон Бриджерс, Джо Инскоу, Стефани Доун Вуд, Мэри Линн Ринер, Люсиль Макинтайр, Аль Уиггинс, Бет Бостич, Крис Т. Хилл, Дэна Стивенс, Николь Шихэн, Робин Рошелль, Сьюзэн Коррелл Хикерсон, Марлон Джексон

    О фильме:
    Экранизация по произведению Марк Хэндли. Деревенский доктор Джером Ловелл обнаруживает в глухих местах Северной Каролины «дикарку», которая сторонится людей и говорит на неизвестном языке. Оказывается, мать воспитала Нелл и её сестру-близнеца без всякого контакта с цивилизацией. С самого рождения девочки не видели ни одного человека, кроме матери и друг друга. Из-за травмы речь матери Нелл была сильно искажена, в результате чего Нелл говорит на своем, особенном языке. После смерти матери и сестры повзрослевшей Нелл приходится выйти в большой мир. Доктор хочет помочь Нелл адаптироваться, а студент-психолог Паула Ольсен и её босс Александр Пэли настаивают на изучении её в лаборатории. Это порождает эмоциональный конфликт, отражённый в фильме.



    Выпущено: США
    Студия: 20th Century Fox, Egg Pictures, PolyGram Filmed Entertainment
    Продолжительность: 01:52:46
    Перевод: Профессиональный двухголосый, авторский одноголосый

    Файл
    Качество: WEB-DLRip 720p
    Видео: MPEG-4 AVC, 7521 Кбит/сек, 1280x720, 23,976 кадра/сек
    Аудио 1: AC3, 2 ch, 192 Кбит/сек | Русский, профессиональный (двухголосый закадровый) НТВ+
    Аудио 2: AC3, 2 ch, 192 Кбит/сек | Русский, авторский (одноголосый закадровый) Андрей Гаврилов
    Аудио 3: AC3, 2 ch, 192 Кбит/сек | Русский, авторский (одноголосый закадровый) Сергей Визгунов
    Аудио 4: AC3, 2 ch, 192 Кбит/сек | Русский, профессиональный (двухголосый закадровый) Селена Интернешнл
    Аудио 5: EAC3, 6 ch, 640 Кбит/сек | Английский, оригинал
    Субтитры: Английские, финские
    Навигация по главам: Есть

    Скриншоты
    [img]http://img12.lostpic.net/2017/12/11/320e21a2179c39f71968d77e2b5fa124.png[/img][img]http://img12.lostpic.net/2017/12/11/7289b9964b99b34fe5be132811c04365.png[/img][img]http://img12.lostpic.net/2017/12/11/e4a61fd5e5a78c391478c21fff944e73.png[/img][img]http://img12.lostpic.net/2017/12/11/4cda83433a603a915493a33e80a7775a.png[/img]
    [img]http://img12.lostpic.net/2017/12/11/0bf88455369e410be9373945ca9de889.png[/img][img]http://img12.lostpic.net/2017/12/11/97e2c20b5cf6a3dbd05cee06c5ee1b78.png[/img][img]http://img12.lostpic.net/2017/12/11/08fb446ac87dc906a6400be13221f44e.png[/img][img]http://img12.lostpic.net/2017/12/11/e4a61fd5e5a78c391478c21fff944e73.png[/img]


    MediaInfo
    x264 [info]: frame I:949 Avg QP:16.33 size: 120217
    x264 [info]: frame P:38070 Avg QP:18.12 size: 65198
    x264 [info]: frame B:123204 Avg QP:19.83 size: 30545
    --------------------------------------------------------------------
    Общее
    Уникальный идентификатор                 : 224626561601975364608885895281345998935 (0xA8FD808B8D626338A7150BE5C0D2B057)
    Полное имя                               : Нелл.1994.WEB-DLRip.720p.KORSAR.mkv
    Формат                                   : Matroska
    Версия формата                           : Version 2
    Размер файла                             : 7,03 Гбайт
    Продолжительность                        : 1 ч. 52 м.
    Общий поток                              : 8930 Кбит/сек
    Дата кодирования                         : UTC 2017-12-11 11:25:22
    Программа кодирования                    : mkvmerge v5.8.0 ("No Sleep / Pillow") built on Sep  2 2012 15:37:04
    Библиотека кодирования                   : libebml v1.2.3 + libmatroska v1.3.0

    Видео
    Идентификатор                            : 1
    Формат                                   : AVC
    Формат/Информация                        : Advanced Video Codec
    Профиль формата                          : High@L4.1
    Параметр CABAC формата                   : Да
    Параметр ReFrames формата                : 9 кадров
    Идентификатор кодека                     : V_MPEG4/ISO/AVC
    Продолжительность                        : 1 ч. 52 м.
    Битрейт                                  : 7521 Кбит/сек
    Ширина                                   : 1280 пикселей
    Высота                                   : 720 пикселей
    Соотношение сторон                       : 16:9
    Режим частоты кадров                     : Постоянный
    Частота кадров                           : 23,976 (24000/1001) кадра/сек
    Цветовое пространство                    : YUV
    Субдискретизация насыщенности            : 4:2:0
    Битовая глубина                          : 8 бит
    Тип развёртки                            : Прогрессивная
    Бит/(Пиксели*Кадры)                      : 0.340
    Размер потока                            : 5,79 Гбайт (82%)
    Заголовок                                : RIP | MZMA
    Библиотека кодирования                   : x264 core 152 r2851kMod ba24899
    Настройки программы                      : cabac=1 / ref=9 / deblock=1:-2:-2 / analyse=0x3:0x113 / me=umh / subme=11 / psy=1 / fade_compensate=0.00 / psy_rd=0.90:0.05 / mixed_ref=1 / me_range=48 / chroma_me=1 / trellis=2 / 8x8dct=1 / cqm=0 / deadzone=21,11 / fast_pskip=0 / chroma_qp_offset=-3 / threads=6 / lookahead_threads=1 / sliced_threads=0 / nr=0 / decimate=0 / interlaced=0 / bluray_compat=0 / constrained_intra=0 / bframes=16 / b_pyramid=2 / b_adapt=2 / b_bias=0 / direct=3 / weightb=1 / open_gop=0 / weightp=2 / keyint=240 / keyint_min=23 / scenecut=40 / intra_refresh=0 / rc_lookahead=40 / rc=2pass / mbtree=0 / bitrate=7521 / ratetol=1.0 / qcomp=0.60 / qpmin=0 / qpmax=69 / qpstep=4 / cplxblur=20.0 / qblur=0.5 / vbv_maxrate=50000 / vbv_bufsize=62500 / nal_hrd=none / filler=0 / ip_ratio=1.25 / pb_ratio=1.30 / aq=3:0.70
    Язык                                     : English
    Default                                  : Да
    Forced                                   : Нет
    Цветовой диапазон                        : Limited
    Основные цвета                           : BT.709
    Характеристики трансфера                 : BT.709
    Коэффициенты матрицы                     : BT.709

    Аудио #1
    Идентификатор                            : 2
    Формат                                   : AC-3
    Формат/Информация                        : Audio Coding 3
    Параметр Endianness формата              : Big
    Идентификатор кодека                     : A_AC3
    Продолжительность                        : 1 ч. 52 м.
    Вид битрейта                             : Постоянный
    Битрейт                                  : 192 Кбит/сек
    Каналы                                   : 2 канала
    Расположение каналов                     : Front: L R
    Частота                                  : 48,0 КГц
    Частота кадров                           : 31,250 кадров/сек (1536 spf)
    Битовая глубина                          : 16 бит
    Метод сжатия                             : С потерями
    Задержка видео                           : 8 мс.
    Размер потока                            : 155 Мбайт (2%)
    Заголовок                                : DVO | НТВ+
    Язык                                     : Russian
    Default                                  : Да
    Forced                                   : Нет

    Аудио #2
    Идентификатор                            : 3
    Формат                                   : AC-3
    Формат/Информация                        : Audio Coding 3
    Параметр Endianness формата              : Big
    Идентификатор кодека                     : A_AC3
    Продолжительность                        : 1 ч. 52 м.
    Вид битрейта                             : Постоянный
    Битрейт                                  : 192 Кбит/сек
    Каналы                                   : 2 канала
    Расположение каналов                     : Front: L R
    Частота                                  : 48,0 КГц
    Частота кадров                           : 31,250 кадров/сек (1536 spf)
    Битовая глубина                          : 16 бит
    Метод сжатия                             : С потерями
    Задержка видео                           : 8 мс.
    Размер потока                            : 155 Мбайт (2%)
    Заголовок                                : AVO | А. Гаврилов
    Язык                                     : Russian
    Default                                  : Нет
    Forced                                   : Нет

    Аудио #3
    Идентификатор                            : 4
    Формат                                   : AC-3
    Формат/Информация                        : Audio Coding 3
    Параметр Endianness формата              : Big
    Идентификатор кодека                     : A_AC3
    Продолжительность                        : 1 ч. 52 м.
    Вид битрейта                             : Постоянный
    Битрейт                                  : 192 Кбит/сек
    Каналы                                   : 2 канала
    Расположение каналов                     : Front: L R
    Частота                                  : 48,0 КГц
    Частота кадров                           : 31,250 кадров/сек (1536 spf)
    Битовая глубина                          : 16 бит
    Метод сжатия                             : С потерями
    Задержка видео                           : 8 мс.
    Размер потока                            : 155 Мбайт (2%)
    Заголовок                                : AVO | С. Визгунов
    Язык                                     : Russian
    Default                                  : Нет
    Forced                                   : Нет

    Аудио #4
    Идентификатор                            : 5
    Формат                                   : AC-3
    Формат/Информация                        : Audio Coding 3
    Параметр Endianness формата              : Big
    Идентификатор кодека                     : A_AC3
    Продолжительность                        : 1 ч. 52 м.
    Вид битрейта                             : Постоянный
    Битрейт                                  : 192 Кбит/сек
    Каналы                                   : 1 канал
    Расположение каналов                     : Front: C
    Частота                                  : 48,0 КГц
    Частота кадров                           : 31,250 кадров/сек (1536 spf)
    Битовая глубина                          : 16 бит
    Метод сжатия                             : С потерями
    Размер потока                            : 155 Мбайт (2%)
    Заголовок                                : DVO | Селена Интернешнл
    Язык                                     : Russian
    Default                                  : Нет
    Forced                                   : Нет

    Аудио #5
    Идентификатор                            : 6
    Формат                                   : E-AC-3
    Формат/Информация                        : Enhanced Audio Coding 3
    Параметр Endianness формата              : Big
    Идентификатор кодека                     : A_EAC3
    Продолжительность                        : 1 ч. 52 м.
    Вид битрейта                             : Постоянный
    Битрейт                                  : 640 Кбит/сек
    Каналы                                   : 6 каналов
    Расположение каналов                     : Front: L C R, Side: L R, LFE
    Частота                                  : 48,0 КГц
    Частота кадров                           : 187,500 кадров/сек (256 spf)
    Метод сжатия                             : С потерями
    Размер потока                            : 516 Мбайт (7%)
    Заголовок                                : Original
    Язык                                     : English
    Default                                  : Нет
    Forced                                   : Нет

    Текст #1
    Идентификатор                            : 7
    Формат                                   : UTF-8
    Идентификатор кодека                     : S_TEXT/UTF8
    Идентификатор кодека/Информация          : UTF-8 Plain Text
    Язык                                     : English
    Default                                  : Нет
    Forced                                   : Нет

    Текст #2
    Идентификатор                            : 8
    Формат                                   : UTF-8
    Идентификатор кодека                     : S_TEXT/UTF8
    Идентификатор кодека/Информация          : UTF-8 Plain Text
    Заголовок                                : SDH
    Язык                                     : English
    Default                                  : Нет
    Forced                                   : Нет

    Текст #3
    Идентификатор                            : 9
    Формат                                   : UTF-8
    Идентификатор кодека                     : S_TEXT/UTF8
    Идентификатор кодека/Информация          : UTF-8 Plain Text
    Язык                                     : Finnish
    Default                                  : Нет
    Forced                                   : Нет

    Меню
    00:00:00.000                             : en:Scene 1
    00:00:13.087                             : en:Scene 2
    00:04:32.087                             : en:Scene 3
    00:06:20.087                             : en:Scene 4
    00:07:24.087                             : en:Scene 5
    00:10:03.087                             : en:Scene 6
    00:11:52.087                             : en:Scene 7
    00:13:29.087                             : en:Scene 8
    00:14:18.087                             : en:Scene 9
    00:15:17.087                             : en:Scene 10
    00:16:36.087                             : en:Scene 11
    00:18:23.087                             : en:Scene 12
    00:20:44.087                             : en:Scene 13
    00:21:36.087                             : en:Scene 14
    00:22:23.087                             : en:Scene 15
    00:23:56.087                             : en:Scene 16
    00:25:28.087                             : en:Scene 17
    00:27:22.087                             : en:Scene 18
    00:29:51.087                             : en:Scene 19
    00:31:02.087                             : en:Scene 20
    00:34:28.087                             : en:Scene 21
    00:35:38.087                             : en:Scene 22
    00:39:21.087                             : en:Scene 23
    00:40:28.087                             : en:Scene 24
    00:43:35.087                             : en:Scene 25
    00:45:40.087                             : en:Scene 26
    00:47:21.087                             : en:Scene 27
    00:50:53.087                             : en:Scene 28
    00:52:16.087                             : en:Scene 29
    00:55:13.087                             : en:Scene 30
    00:56:45.087                             : en:Scene 31
    00:57:56.087                             : en:Scene 32
    01:01:41.087                             : en:Scene 33
    01:02:57.087                             : en:Scene 34
    01:05:45.087                             : en:Scene 35
    01:08:49.087                             : en:Scene 36
    01:09:07.087                             : en:Scene 37
    01:10:32.087                             : en:Scene 38
    01:11:56.087                             : en:Scene 39
    01:13:44.087                             : en:Scene 40
    01:17:29.087                             : en:Scene 41
    01:20:04.087                             : en:Scene 42
    01:23:52.087                             : en:Scene 43
    01:25:37.087                             : en:Scene 44
    01:27:56.087                             : en:Scene 45
    01:31:51.087                             : en:Scene 46
    01:34:16.087                             : en:Scene 47
    01:37:41.087                             : en:Scene 48
    01:39:47.087                             : en:Scene 49
    01:45:21.087                             : en:Scene 50
    01:49:16.087                             : en:Scene 51
    Еще похожие »

    Как скачать?
    1. Качаем UTorrent версии 2.0 и выше отсюда
    2. После установки, жмем на ссылку Скачать торрент.
    3. Открываем его через utorrent.
    4. Ждем пока подключатся участники.
    5. Качаем.


    Комментарии о Нелл / Nell | WEB-DLRip 720p
    Добавлять комментарии могут только зарегистрированные пользователи

    Зарегистрироваться или Войти


    Ближайшее в кино
    • 8 подруг Оушена дата выхода 21 июня 20188 подруг Оушена
      Дата выхода: 21 июня 2018
    • 939579|Сага о чудовище. Сумерки|21 июня 2018|200|300Сага о чудовище. Сумерки
      Дата выхода: 21 июня 2018
    • 1045170|Ночная смена|21 июня 2018|200|300Ночная смена
      Дата выхода: 21 июня 2018
    • 957910|Прощаться не будем|21 июня 2018|200|300Прощаться не будем
      Дата выхода: 21 июня 2018
    • 1015192|ХОТ-ДОГ|21 июня 2018|200|300ХОТ-ДОГ
      Дата выхода: 21 июня 2018
    • 1095014|Фобия|21 июня 2018|200|300Фобия
      Дата выхода: 21 июня 2018
    • 1030023|Горы|21 июня 2018|200|300Горы
      Дата выхода: 21 июня 2018
    • 1161766|Ван Гог: Золото и лазурь|21 июня 2018|200|300Ван Гог: Золото и лазурь
      Дата выхода: 21 июня 2018
    • 938461|Убийца 2. Против всех|28 июня 2018|200|300Убийца 2. Против всех
      Дата выхода: 28 июня 2018
    • 1031219|План побега 2|28 июня 2018|200|300План побега 2
      Дата выхода: 28 июня 2018
    • 912012|Распрекрасный принц|28 июня 2018|200|300Распрекрасный принц
      Дата выхода: 28 июня 2018
    • 1015040|Во власти стихии|28 июня 2018|200|300Во власти стихии
      Дата выхода: 28 июня 2018
    • 759874|Ты водишь!|28 июня 2018|200|300Ты водишь!
      Дата выхода: 28 июня 2018
    • 1077873|Книжный клуб|28 июня 2018|200|300Книжный клуб
      Дата выхода: 28 июня 2018
    • 1047708|Инсомния|28 июня 2018|200|300Инсомния
      Дата выхода: 28 июня 2018
    Вверх