• Игры для PS3
  • Игры для XBOX360
  • Игры для PC
  • Игры для PS2
  • Игры для PSP
  • Для телефонов
  • Музыка
  • Книги/Журналы
  • Обои
  •  
    Опрос
    Откуда Вы о нас узнали?
      0
    • От знакомых2,1,false,300,full
    • Из социальных сетей2,2,false,300,full
    • Из поисковых систем2,3,false,300,full
    • Другое2,4,false,300,full
    Статистика
    Загрузка...
    Ангелы и Демоны / Angels & Demons | WEB-DLRip-AVC
    Статус  Проверено
    В закладки
    Модератор: Max

    Ангелы и Демоны / Angels & Demons | WEB-DLRip-AVC [Фильмы 2009] скачать торрентом/torrent бесплатно

    Год выхода
    Язык
    Закачал
    Max | 12 января 2018 в 17ч 56м 37с
    Раздел
    Отзывов
    0
    Раздают: 32 Качают: 4 Скачали: 32 Размер: 2.16 GB
    Файлы (1) | Благодарности | Хэш код |
    0/5
    0
    Поддержи нас — расскажи друзьям!
    Orbitum
    Новый интернет-браузер Быстрее загружает сайты Экономит интернет—трафик Меняет оформление страницы ВК Блокирует всю рекламу на сайтах Загружает торренты как

    µTorrent

    клиент
    Объеденяет все твои чаты из соц. сетей в один Проигрывает твою музыку не заходя во ВКонтакте
    Скачать и многое другое... Подробности на сайте производителя
    ✦  Ангелы и Демоны / Angels & Demons ✦

    Информация о фильме:
    ❖ Год выпуска: 2009
    ❖ Страна: США, Италия / Columbia Pictures, Imagine Entertainment, Skylark Productions
    ❖ Жанр: Триллер, драма, детектив, экранизациял
    ❖ Перевод: Дублированный
    ❖  Продолжительность: 02:18:15

    ❖ Режиссер: Рон Ховард
    ❖ В ролях: Том Хэнкс, Эван МакГрегор, Аилит Зорор, Стеллан Скарсгард, Пьерфранческо Фавино, Николай Ли Каас, Армин Мюллер-Шталь, Туре Линдхардт, Дэвид Паскеси, Козимо Фуско

    ❖ Релиз от: [img]http://i73.fastpic.ru/big/2016/0221/07/6550c2a76e4be697e4de54b656b05707.png[/img]
    ❖ Автор рипа:   ProT1gR

    Описание фильма:
    Весь мир замер в ожидании свершения древнейшей церемонии - выбора главы католической церкви Папы Римского, но в судьбоносное решение вмешивается некая могущественная сила - заклятый враг католической церкви - таинственный орден Иллюминатов! Кандидаты на священный пост подвергаются свирепой ритуальной расправе один за другим. Перед лицом смертельной угрозы Ватикан вынужден обратится за помощью к профессору - эксперту по религиозной символике Роберту Лэнгдону, который находит доказательства возрождения могущественного тайного братства, жестоко истребляемого в Средние века. Вместе со своей напарницей - талантливым ученым Витторией Ветра - Лэнгдон начинает собственное расследование, увлекающие их в лабиринты замурованных склепов, тайных подземелий и заброшенных храмов - в самое сокровенное хранилище в мире. Мистической тропой символов ученые продвигаются к невероятной истине, которая дает Ватикану единственную надежду на спасение. Но в неистовом желании расквитаться и показать свое превосходство иллюминаты не остановятся ни перед чем! Настала пора для человечества узнать правду! Экранизация по роману Дэна Брауна.



    Технические данные файла:
    ❖  Качество: WEB-DLRip-AVC (Исх. WEB-DL 1080p [Open Matte] -BLUEBIRD)
    ❖  Формат: MKV
    ❖  Видео: 1024x576 (16:9), 23.976 fps, MPEG-4 AVC ~ 1 845 kbps (0.130 bit/pixel)
    ❖  Аудио: AC3, 48.0 KHz, 6 ch, 384 kbps

    Примечания:
    Исходник видео WEB-DL Amazon STARZ (Периодически появляется логотип)
    Open Matte версия фильма, имеет большее наполнение кадра, по сравнению с блюрэй.
    Театральная версия фильма.


    MI
    General
    Unique ID                                : 238815793054262585624864240946046622543 (0xB3AA3FAB09AA047D954E4E0372D4DB4F)
    Complete name                            : Angels & Demons (2009) WEB-DLRip.Open Matte.[Kaztorrents].mkv
    Format                                   : Matroska
    Format version                           : Version 2
    File size                                : 2.16 GiB
    Duration                                 : 2 h 18 min
    Overall bit rate                         : 2 230 kb/s
    Encoded date                             : UTC 2018-01-11 20:16:29
    Writing application                      : mkvmerge v7.8.0 ("River Man") 32bit built on Apr  3 2015 12:11:22
    Writing library                          : libebml v1.3.1 + libmatroska v1.4.2

    Video
    ID                                       : 1
    Format                                   : AVC
    Format/Info                              : Advanced Video Codec
    Format profile                           : High@L4
    Format settings, CABAC                   : Yes
    Format settings, ReFrames                : 12 frames
    Codec ID                                 : V_MPEG4/ISO/AVC
    Duration                                 : 2 h 18 min
    Bit rate                                 : 1 845 kb/s
    Width                                    : 1 024 pixels
    Height                                   : 576 pixels
    Display aspect ratio                     : 16:9
    Frame rate mode                          : Constant
    Frame rate                               : 23.976 (24000/1001) FPS
    Color space                              : YUV
    Chroma subsampling                       : 4:2:0
    Bit depth                                : 8 bits
    Scan type                                : Progressive
    Bits/(Pixel*Frame)                       : 0.130
    Stream size                              : 1.75 GiB (81%)
    Writing library                          : x264 core 146 r2538 121396c
    Encoding settings                        : cabac=1 / ref=12 / deblock=1:-3:-3 / analyse=0x3:0x113 / me=umh / subme=11 / psy=1 / psy_rd=1.00:0.00 / mixed_ref=1 / me_range=48 / chroma_me=1 / trellis=2 / 8x8dct=1 / cqm=0 / deadzone=21,11 / fast_pskip=0 / chroma_qp_offset=-2 / threads=6 / lookahead_threads=1 / sliced_threads=0 / nr=0 / decimate=0 / interlaced=0 / bluray_compat=0 / constrained_intra=0 / bframes=12 / b_pyramid=2 / b_adapt=2 / b_bias=0 / direct=3 / weightb=1 / open_gop=0 / weightp=2 / keyint=240 / keyint_min=23 / scenecut=40 / intra_refresh=0 / rc_lookahead=40 / rc=2pass / mbtree=0 / bitrate=1845 / ratetol=1.0 / qcomp=0.60 / qpmin=0 / qpmax=69 / qpstep=4 / cplxblur=20.0 / qblur=0.5 / vbv_maxrate=50000 / vbv_bufsize=62500 / nal_hrd=none / filler=0 / ip_ratio=1.40 / pb_ratio=1.30 / aq=1:1.10
    Default                                  : Yes
    Forced                                   : No

    Audio
    ID                                       : 2
    Format                                   : AC-3
    Format/Info                              : Audio Coding 3
    Mode extension                           : CM (complete main)
    Format settings, Endianness              : Big
    Codec ID                                 : A_AC3
    Duration                                 : 2 h 18 min
    Bit rate mode                            : Constant
    Bit rate                                 : 384 kb/s
    Channel(s)                               : 6 channels
    Channel positions                        : Front: L C R, Side: L R, LFE
    Sampling rate                            : 48.0 kHz
    Frame rate                               : 31.250 FPS (1536 spf)
    Bit depth                                : 16 bits
    Compression mode                         : Lossy
    Stream size                              : 381 MiB (17%)
    Default                                  : Yes
    Forced                                   : No


    Скриншоты
    [img]http://i4.imageban.ru/out/2018/01/12/0af157765c31ffbc6ec592d2b387c1d4.jpg[/img][img]http://i6.imageban.ru/out/2018/01/12/47d75280985a59f58b2ccb02755c5153.jpg[/img]
    [img]http://i5.imageban.ru/out/2018/01/12/29ee34cbf90a1085347d3e3343054b8f.jpg[/img][img]http://i1.imageban.ru/out/2018/01/12/1bb610d7cefb28e12f6853c4bf24eb34.jpg[/img]
    Еще похожие »

    Как скачать?
    1. Качаем UTorrent версии 2.0 и выше отсюда
    2. После установки, жмем на ссылку Скачать торрент.
    3. Открываем его через utorrent.
    4. Ждем пока подключатся участники.
    5. Качаем.


    Комментарии о Ангелы и Демоны / Angels & Demons | WEB-DLRip-AVC
    Добавлять комментарии могут только зарегистрированные пользователи

    Зарегистрироваться или Войти


    Ближайшее в кино
    • Пианистка дата выхода 18 января 2018Пианистка
      Дата выхода: 18 января 2018
    • Форма воды дата выхода 18 января 2018Форма воды
      Дата выхода: 18 января 2018
    • Астрал 4: Последний ключ дата выхода 18 января 2018Астрал 4: Последний ключ
      Дата выхода: 18 января 2018
    • Темные времена дата выхода 18 января 2018Темные времена
      Дата выхода: 18 января 2018
    • Скиф дата выхода 18 января 2018Скиф
      Дата выхода: 18 января 2018
    • Приключения Паддингтона 2 дата выхода 18 января 2018Приключения Паддингтона 2
      Дата выхода: 18 января 2018
    • Карп отмороженный дата выхода 18 января 2018Карп отмороженный
      Дата выхода: 18 января 2018
    • Мешок без дна дата выхода 18 января 2018Мешок без дна
      Дата выхода: 18 января 2018
    • МУЛЬТ в кино. Выпуск №67. Зимний карнавал дата выхода 20 января 2018МУЛЬТ в кино. Выпуск №67. Зимний карнавал
      Дата выхода: 20 января 2018
    • Смерть Сталина дата выхода 25 января 2018Смерть Сталина
      Дата выхода: 25 января 2018
    • Zомбоящик дата выхода 25 января 2018Zомбоящик
      Дата выхода: 25 января 2018
    • Хэппи-энд дата выхода 25 января 2018Хэппи-энд
      Дата выхода: 25 января 2018
    • Побег из Рио дата выхода 25 января 2018Побег из Рио
      Дата выхода: 25 января 2018
    • Девушка в тумане дата выхода 25 января 2018Девушка в тумане
      Дата выхода: 25 января 2018
    • Выставка Hokusai Британского музея дата выхода 25 января 2018Выставка Hokusai Британского музея
      Дата выхода: 25 января 2018
    Вверх