• Игры для PS4
  • Игры для PS3
  • Игры для XBOX360
  • Игры для PC
  • Игры для PS2
  • Игры для PSP
  • Для телефонов
  • Музыка
  • Книги / Журналы
  • Обои
  • Опрос
    Удобен ли сайт в использовании?
      0
    • Очень удобен, все понятно1,1,false,300,full
    • Удобен1,2,false,300,full
    • Средне1,3,false,300,full
    • Неудобен, трудно ориентироваться1,4,false,300,full
    • Совсем неудобен1,5,false,300,full
    Статистика
    Всего онлайн -
    Гостей -
    Пользователей -
    Короли трекера
    
    Благодарности () Закрыть
    Информация о фильме
    Название: Битва болотных драконов
    Оригинальное: Battle of the Swamp Dragons
    Год выхода: 2017
    Жанр: Документальный, природа, флора, фауна
    Режиссер: Касей Эдлунд

    Описание:
    В болотах Флориды правят современные чудовища. Огромные аллигаторы и крокодилы охотятся бок о бок и убивают одним укусом. Но в болоте может править только один король. Что будет, когда эти два титана столкнутся? Кто из них более свирепый хищник и кто победит?

    Выпущено: США, Великобритания / National Geographic
    Продолжительность: 00:44:00
    Перевод: Дублированный

    Файл
    Кодек: MPEG-4 AVC
    Качество: HDTVRip 720p
    Видео: 1280х720, 5000 Кбит/с, 25 кадр/с
    Звук: AC3, 2 канала, 192 Кбит/с

    MI
    Общее
    Уникальный идентификатор                 : 196803279868720943578279813132441284628 (0x940EEED81F8D87B0A58E83CFE9CEF014)
    Полное имя                               : C:UsersDDesktopNGW_Battle of the Swamp Dragons_720p.mkv
    Формат                                   : Matroska
    Версия формата                           : Version 4 / Version 2
    Размер файла                             : 1,60 Гбайт
    Продолжительность                        : 43 м. 59 с.
    Режим общего битрейта                    : Переменный
    Общий поток                              : 5191 Кбит/сек
    Дата кодирования                         : UTC 2017-01-21 21:02:06
    Программа кодирования                    : mkvmerge v7.3.0 ("Nouages") 64bit built on Oct 22 2014 18:53:34
    Библиотека кодирования                   : libebml v1.3.0 + libmatroska v1.4.1

    Видео
    Идентификатор                            : 1
    Формат                                   : AVC
    Формат/Информация                        : Advanced Video Codec
    Профиль формата                          : High@L4.1
    Настройки формата                        : CABAC / 3 Ref Frames
    Параметр CABAC формата                   : Да
    Параметр RefFrames формата               : 3 кадра
    Режим смешивания                         : zlib
    Идентификатор кодека                     : V_MPEG4/ISO/AVC
    Продолжительность                        : 43 м. 59 с.
    Вид битрейта                             : Переменный
    Битрейт                                  : 4998 Кбит/сек
    Максимальный битрейт                     : 8000 Кбит/сек
    Ширина                                   : 1280 пикселей
    Высота                                   : 720 пикселей
    Соотношение сторон                       : 16:9
    Режим частоты кадров                     : Постоянный
    Частота кадров                           : 25,000 кадров/сек
    Стандарт вещания                         : NTSC
    Цветовое пространство                    : YUV
    Субдискретизация насыщенности            : 4:2:0
    Битовая глубина                          : 8 бит
    Тип развёртки                            : Прогрессивная
    Бит/(Пиксели*Кадры)                      : 0.217
    Размер потока                            : 1,54 Гбайт (96%)
    Default                                  : Да
    Forced                                   : Нет
    Цветовой диапазон                        : Limited
    Основные цвета                           : BT.709
    Характеристики трансфера                 : BT.709
    Коэффициенты матрицы                     : BT.709

    Аудио
    Идентификатор                            : 2
    Формат                                   : AC-3
    Формат/Информация                        : Audio Coding 3
    Идентификатор кодека                     : A_AC3
    Продолжительность                        : 43 м. 59 с.
    Вид битрейта                             : Постоянный
    Битрейт                                  : 192 Кбит/сек
    Каналы                                   : 2 канала
    Расположение каналов                     : Front: L R
    Частота                                  : 48,0 КГц
    Частота кадров                           : 31,250 кадров/сек (1536 SPF)
    Битовая глубина                          : 16 бит
    Метод сжатия                             : С потерями
    Размер потока                            : 60,4 Мбайт (4%)
    Default                                  : Да
    Forced                                   : НетСвернуть


    Скриншоты
    [screen]http://i3.imageban.ru/out/2018/01/12/72664c6865b43932548225a417593c84.jpg[/screen][screen]http://i3.imageban.ru/out/2018/01/12/542d477280ebe0589243692a1a2f669c.jpg[/screen][screen]http://i3.imageban.ru/out/2018/01/12/041dfbe5b7000dcd0ed7decdad5d1722.jpg[/screen][screen]http://i5.imageban.ru/out/2018/01/12/911c0dfd4dde972e019b027d6090685c.jpg[/screen][screen]http://i1.imageban.ru/out/2018/01/12/a6a2003f8c57e5241d2acb62a8645230.jpg[/screen][screen]http://i2.imageban.ru/out/2018/01/12/af25d73f4697ac43b326d83768107d9d.jpg[/screen][screen]http://i4.imageban.ru/out/2018/01/12/802c4779e415579e1ae8bbd1a875c4a1.jpg[/screen][screen]http://i2.imageban.ru/out/2018/01/12/5339e5582e6585fcfb842e476ff7116f.jpg[/screen]Свернуть
    Инструкция по скачиванию
     1  Качаем uTorrent версии 2.0 и выше
     2  После установки, жмем выше под постером на ссылку Скачать [MediaGet] или Скачать .torrent
     3  Открываем скачанный файл через соответствующий клиент: MediaGet или uTorrent
     4  Ждем пока подключатся участники
     5  Качаем
    Комментарии о  National Geographic: Битва болотных драконов / Battle of the Swamp Dragons | HDTVRip 720p 
    Ближайшее в кино
    Вверх