• Игры для PS4
  • Игры для PS3
  • Игры для XBOX360
  • Игры для PC
  • Игры для PS2
  • Игры для PSP
  • Для телефонов
  • Музыка
  • Книги / Журналы
  • Обои
  • Опрос
    Откуда Вы о нас узнали?
      0
    • От знакомых2,1,false,300,full
    • Из социальных сетей2,2,false,300,full
    • Из поисковых систем2,3,false,300,full
    • Другое2,4,false,300,full
    Статистика
    Всего онлайн -
    Гостей -
    Пользователей -
    Короли трекера
    Благодарности () Закрыть
    Информация о фильме
    Название:  Прощай, Кристофер Робин
    Оригинальное название:  Goodbye Christopher Robin

    Год выпуска: 2017
    Жанр:  семейный, биография, история
    Режиссер: Саймон Кёртис
    В ролях:  Марго Робби Донал Глисон Келли Макдоналд Фиби Уоллер-Бридж Алекс Лоутер Стивен Кэмпбелл Мур Джеральдин Сомервилль Нико Мираллегро Саймон Уильямс Анджела Холмс

    О фильме:
    Картина расскажет о взаимоотношениях между А. А. Милном и его сыном Кристофером Робином, чьи игрушки вдохновили писателя на создание волшебного мира повестей о Винни-Пухе.

    [img]http://www.kinopoisk.ru/rating/993579.gif[/img]

    Страна:  Великобритания, DJ Films, Fox Searchlight Pictures
    Перевод: Профессиональный (многоголосый) [iTunes]
    Продолжительность: 01:47:01
    Субтитры:  Английские

    Файл
    Формат: mkv
    Качество:  BDRip 720p
    Видео: MPEG-4 AVC, 5775 Кбит/сек, 1280x690
    Аудио#1 Русский (AC3, 6 ch, 384 Кбит/с)
    Аудио#2 английский (DTS, 6 ch, 1509 Кбит/сек)

    MI
    Общее
    Уникальный идентификатор                 : 206642705229520871618143147917524719441 (0x9B75EFF81329CF5298FA5369202DD751)
    Полное имя                               : C:UsersВDownloadsVideopP0W4aj.P061H.2O17.P.BDRip.72Op.mkv
    Формат                                   : Matroska
    Версия формата                           : Version 2
    Размер файла                             : 5,75 Гбайт
    Продолжительность                        : 1 ч. 47 м.
    Общий поток                              : 7695 Кбит/сек
    Дата кодирования                         : UTC 2018-01-12 02:19:05
    Программа кодирования                    : mkvmerge v8.3.0 ("Over the Horizon") 64bit
    Библиотека кодирования                   : libebml v1.3.1 + libmatroska v1.4.2

    Видео
    Идентификатор                            : 1
    Формат                                   : AVC
    Формат/Информация                        : Advanced Video Codec
    Профиль формата                          : High@L4.1
    Параметр CABAC формата                   : Да
    Параметр ReFrames формата                : 4 кадра
    Идентификатор кодека                     : V_MPEG4/ISO/AVC
    Продолжительность                        : 1 ч. 47 м.
    Битрейт                                  : 5775 Кбит/сек
    Ширина                                   : 1280 пикселей
    Высота                                   : 690 пикселей
    Соотношение сторон                       : 1,85:1
    Режим частоты кадров                     : Постоянный
    Частота кадров                           : 23,976 (24000/1001) кадра/сек
    Цветовое пространство                    : YUV
    Субдискретизация насыщенности            : 4:2:0
    Битовая глубина                          : 8 бит
    Тип развёртки                            : Прогрессивная
    Бит/(Пиксели*Кадры)                      : 0.273
    Размер потока                            : 4,32 Гбайт (75%)
    Язык                                     : English
    Default                                  : Да
    Forced                                   : Нет

    Аудио #1
    Идентификатор                            : 2
    Формат                                   : AC-3
    Формат/Информация                        : Audio Coding 3
    Расширение режима                        : CM (complete main)
    Параметр Endianness формата              : Big
    Идентификатор кодека                     : A_AC3
    Продолжительность                        : 1 ч. 46 м.
    Вид битрейта                             : Постоянный
    Битрейт                                  : 384 Кбит/сек
    Каналы                                   : 6 каналов
    Расположение каналов                     : Front: L C R, Side: L R, LFE
    Частота                                  : 48,0 КГц
    Частота кадров                           : 31,250 кадров/сек (1536 spf)
    Битовая глубина                          : 16 бит
    Метод сжатия                             : С потерями
    Размер потока                            : 294 Мбайт (5%)
    Язык                                     : Russian
    Default                                  : Да
    Forced                                   : Нет

    Аудио #2
    Идентификатор                            : 3
    Формат                                   : DTS
    Формат/Информация                        : Digital Theater Systems
    Режим                                    : 16
    Параметр Endianness формата              : Big
    Идентификатор кодека                     : A_DTS
    Продолжительность                        : 1 ч. 47 м.
    Вид битрейта                             : Постоянный
    Битрейт                                  : 1509 Кбит/сек
    Каналы                                   : 6 каналов
    Расположение каналов                     : Front: L C R, Side: L R, LFE
    Частота                                  : 48,0 КГц
    Частота кадров                           : 93,750 кадра/сек (512 spf)
    Битовая глубина                          : 24 бит
    Метод сжатия                             : С потерями
    Размер потока                            : 1,13 Гбайт (20%)
    Язык                                     : English
    Default                                  : Нет
    Forced                                   : Нет

    Текст
    Идентификатор                            : 4
    Формат                                   : PGS
    Режим смешивания                         : zlib
    Идентификатор кодека                     : S_HDMV/PGS
    Идентификатор кодека/Информация          : Picture based subtitle format used on BDs/HD-DVDs
    Продолжительность                        : 1 ч. 41 м.
    Битрейт                                  : 25,7 Кбит/сек
    Count of elements                        : 4161
    Размер потока                            : 18,6 Мбайт (0%)
    Язык                                     : English
    Default                                  : Нет
    Forced                                   : Нет

    Меню
    00:00:00.000                             : en:
    00:04:03.952                             : en:
    00:07:01.171                             : en:
    00:10:32.632                             : en:
    00:13:40.528                             : en:
    00:16:48.591                             : en:
    00:20:43.409                             : en:
    00:25:44.793                             : en:
    00:30:36.752                             : en:
    00:35:25.582                             : en:
    00:40:50.740                             : en:
    00:48:22.108                             : en:
    00:52:32.733                             : en:
    00:57:53.595                             : en:
    01:03:35.812                             : en:
    01:07:38.513                             : en:
    01:12:43.859                             : en:
    01:18:55.731                             : en:
    01:21:45.609                             : en:
    01:25:16.653                             : en:
    01:29:10.428                             : en:
    01:32:27.917                             : en:
    01:35:55.917                             : en:
    01:41:03.266                             : en:

    Свернуть


    Инструкция по скачиванию
     1  Качаем uTorrent версии 2.0 и выше
     2  После установки, жмем выше под постером на ссылку Скачать [MediaGet] или Скачать .torrent
     3  Открываем скачанный файл через соответствующий клиент: MediaGet или uTorrent
     4  Ждем пока подключатся участники
     5  Качаем
    Комментарии о  Прощай, Кристофер Робин / Goodbye Christopher Robin | BDRip 720p 
    Ближайшее в кино
    Вверх