• Игры для PS3
  • Игры для XBOX360
  • Игры для PC
  • Игры для PS2
  • Игры для PSP
  • Для телефонов
  • Музыка
  • Книги/Журналы
  • Обои
  •  
    Опрос
    Откуда Вы о нас узнали?
      0
    • От знакомых2,1,false,300,full
    • Из социальных сетей2,2,false,300,full
    • Из поисковых систем2,3,false,300,full
    • Другое2,4,false,300,full
    Статистика
    Загрузка...
    Семь смертей по рецепту / 7 morts sur ordonnance | BDRip
    Статус  Проверено
    В закладки
    Модератор: Max

    Семь смертей по рецепту / 7 morts sur ordonnance | BDRip [Фильмы 1975] скачать торрентом/torrent бесплатно

    Год выхода
    Категории
    Язык
    Закачал
    Max | 13 января 2018 в 09ч 14м 13с
    Раздел
    Отзывов
    0
    Раздают: 30 Качают: 10 Скачали: 215 Размер: 3.07 GB
    Файлы (1) | Благодарности | Хэш код |
    0/5
    0
    Поддержи нас — расскажи друзьям!
    Orbitum
    Новый интернет-браузер Быстрее загружает сайты Экономит интернет—трафик Меняет оформление страницы ВК Блокирует всю рекламу на сайтах Загружает торренты как

    µTorrent

    клиент
    Объеденяет все твои чаты из соц. сетей в один Проигрывает твою музыку не заходя во ВКонтакте
    Скачать и многое другое... Подробности на сайте производителя
    Информация о фильме
    Название: Семь смертей по рецепту
    Оригинальное название: 7 morts sur ordonnance
    Год выхода: 1975
    Жанр: Драма
    Режиссер: Жак Руффио
    В ролях: Мишель Пикколи, Марина Влади, Жерар Депардьё, Джейн Биркин, Шарль Ванель, Мишель Оклер, Антонио Феррандис, Хосе Мария Прада, Георг Маришка, Моник Мелинан, Колин Серро, Карл Шёнбёк, Этьен Драбе, Ги Беллева

    О фильме:
    Доктор Пьер Лосре (Мишель Пикколи) – талантливый хирург. Вместе со своей женой он переехал в маленький провинциальный городок на юге Франции и открывает свой частный кабинет. Дела его идут успешно, и это абсолютно не устраивает владельцев местной клиники - семейство Брезе. На их совести уже есть самоубийство одного врача, у которого не было отбоя от пациентов. Теперь завистливые конкуренты начинают травлю хирурга...



    Страна: Франция, Германия, Испания
    Студия: Belstar Productions, Films 66, TIT Filmproduktion GmbH
    Продолжительность: 01:47:56
    Перевод: Профессиональный многоголосый закадровый

    Файл
    Кодек: h.264
    Качество: BDRip AVC
    Видео: MPEG-4 AVC, 3500 Кбит/с, 960x576, 24,000 кадр/с
    Звук:
    Русский (AC3, 2 ch, 192 Кбит/с) / Профессиональный многоголосый со вставками любительской одноголоски
    Французский (AC3, 2 ch, 384 Кбит/с)
    Субтитры: Нет

    Семпл

    О релизе
    Перевод: Профессиональный многоголосый со вставками любительской одноголоски. Вставки одноголоски в многоголоску: 00:17:11 - 00:22:13, 00:35:19 - 00:35:49, 00:38:28 - 00:39:46
    Огромное спасибо dr12 за помощь в переводе вырезанных фрагментов!!!


    MI
    General
    Unique ID                                : 235590246745678522719670104307900416326 (0xB13D07F4F1D14B8F84898AC974F90146)
    Complete name                            : D:uTorrentSem.smertey.po.receptu.1975.BDRip.AVC.MediaClub.mkv
    Format                                   : Matroska
    Format version                           : Version 4 / Version 2
    File size                                : 3.07 GiB
    Duration                                 : 1 h 47 min
    Overall bit rate                         : 4 077 kb/s
    Movie name                               : Sept mortes sur ordonnance (1975)
    Encoded date                             : UTC 2018-01-12 22:57:54 / UTC 2017-10-29T05:42:14Z
    Writing application                      : mkvmerge v17.0.0 ("Be Ur Friend") 64-bit
    Writing library                          : libebml v1.3.5 + libmatroska v1.4.8 / Lavf57.7.2

    Video
    ID                                       : 1
    Format                                   : AVC
    Format/Info                              : Advanced Video Codec
    Format profile                           : High@L4.1
    Format settings                          : CABAC / 14 Ref Frames
    Format settings, CABAC                   : Yes
    Format settings, RefFrames               : 14 frames
    Codec ID                                 : V_MPEG4/ISO/AVC
    Duration                                 : 1 h 47 min
    Bit rate                                 : 3 500 kb/s
    Width                                    : 960 pixels
    Height                                   : 576 pixels
    Display aspect ratio                     : 5:3
    Frame rate mode                          : Constant
    Frame rate                               : 24.000 FPS
    Color space                              : YUV
    Chroma subsampling                       : 4:2:0
    Bit depth                                : 8 bits
    Scan type                                : Progressive
    Bits/(Pixel*Frame)                       : 0.264
    Stream size                              : 2.58 GiB (84%)
    Title                                    : BDRip by Silverok
    Writing library                          : x264 core 148 r2708 86b7198
    Encoding settings                        : cabac=1 / ref=14 / deblock=1:-3:-3 / analyse=0x3:0x113 / me=umh / subme=11 / psy=1 / psy_rd=1.00:0.00 / mixed_ref=1 / me_range=32 / chroma_me=1 / trellis=2 / 8x8dct=1 / cqm=0 / deadzone=21,11 / fast_pskip=1 / chroma_qp_offset=-2 / threads=12 / lookahead_threads=1 / sliced_threads=0 / nr=0 / decimate=0 / interlaced=0 / bluray_compat=0 / constrained_intra=0 / bframes=11 / b_pyramid=2 / b_adapt=1 / b_bias=0 / direct=1 / weightb=1 / open_gop=0 / weightp=2 / keyint=240 / keyint_min=24 / scenecut=40 / intra_refresh=0 / rc_lookahead=40 / rc=2pass / mbtree=1 / bitrate=3500 / ratetol=1.0 / qcomp=0.60 / qpmin=0 / qpmax=69 / qpstep=4 / cplxblur=20.0 / qblur=0.5 / vbv_maxrate=62500 / vbv_bufsize=78125 / nal_hrd=none / filler=0 / ip_ratio=1.40 / aq=1:1.00
    Default                                  : Yes
    Forced                                   : No
    Color range                              : Limited
    Color primaries                          : BT.709
    Transfer characteristics                 : BT.709
    Matrix coefficients                      : BT.709
    Statistics Tags Issue                    : mkvmerge v17.0.0 ("Be Ur Friend") 64-bit 2018-01-12 22:57:54 / mkvmerge v17.0.0 ("Be Ur Friend") 64-bit 2018-01-12 22:57:54 / UTC 2017-10-29T05:42:14Z
    FromStats_BitRate                        : 3499234
    FromStats_Duration                       : 01:47:56.542000000
    FromStats_FrameCount                     : 155437
    FromStats_StreamSize                     : 2832867246

    Audio #1
    ID                                       : 2
    Format                                   : AC-3
    Format/Info                              : Audio Coding 3
    Codec ID                                 : A_AC3
    Duration                                 : 1 h 47 min
    Bit rate mode                            : Constant
    Bit rate                                 : 192 kb/s
    Channel(s)                               : 2 channels
    Channel positions                        : Front: L R
    Sampling rate                            : 48.0 kHz
    Frame rate                               : 31.250 FPS (1536 SPF)
    Bit depth                                : 16 bits
    Compression mode                         : Lossy
    Stream size                              : 148 MiB (5%)
    Title                                    : Профессиональный многоголосый  со вставками любительской одноголоски
    Language                                 : Russian
    Service kind                             : Complete Main
    Default                                  : Yes
    Forced                                   : No
    Statistics Tags Issue                    : mkvmerge v17.0.0 ("Be Ur Friend") 64-bit 2018-01-12 22:57:54 / mkvmerge v17.0.0 ("Be Ur Friend") 64-bit 2018-01-12 22:57:54 / UTC 2017-10-29T05:42:14Z
    FromStats_BitRate                        : 192000
    FromStats_Duration                       : 01:47:56.384000000
    FromStats_FrameCount                     : 202387
    FromStats_StreamSize                     : 155433216

    Audio #2
    ID                                       : 3
    Format                                   : AC-3
    Format/Info                              : Audio Coding 3
    Codec ID                                 : A_AC3
    Duration                                 : 1 h 47 min
    Bit rate mode                            : Constant
    Bit rate                                 : 384 kb/s
    Channel(s)                               : 2 channels
    Channel positions                        : Front: L R
    Sampling rate                            : 48.0 kHz
    Frame rate                               : 31.250 FPS (1536 SPF)
    Bit depth                                : 16 bits
    Compression mode                         : Lossy
    Delay relative to video                  : -5 ms
    Stream size                              : 296 MiB (9%)
    Language                                 : French
    Service kind                             : Complete Main
    Default                                  : No
    Forced                                   : No
    Statistics Tags Issue                    : mkvmerge v17.0.0 ("Be Ur Friend") 64-bit 2018-01-12 22:57:54 / mkvmerge v17.0.0 ("Be Ur Friend") 64-bit 2018-01-12 22:57:54 / UTC 2017-10-29T05:42:14Z
    FromStats_BitRate                        : 384000
    FromStats_Duration                       : 01:47:56.352000000
    FromStats_FrameCount                     : 202386
    FromStats_StreamSize                     : 310864896

    Menu
    00:00:00.000                             : :Chapter 1
    00:08:55.208                             : :Chapter 2
    00:18:03.292                             : :Chapter 3
    00:28:09.000                             : :Chapter 4
    00:35:57.875                             : :Chapter 5
    00:45:00.167                             : :Chapter 6
    00:52:52.958                             : :Chapter 7
    01:02:43.792                             : :Chapter 8
    01:11:17.167                             : :Chapter 9
    01:20:53.750                             : :Chapter 10
    01:30:30.250                             : :Chapter 11
    01:39:12.583                             : :Chapter 12


    Скриншоты
    [img]http://i3.imageban.ru/out/2018/01/13/6d57fcca2c486ecf5326702440837750.png[/img][img]http://i6.imageban.ru/out/2018/01/13/42b1db654cec470753146f9b0f369ce3.png[/img][img]http://i1.imageban.ru/out/2018/01/13/74ba05d178d1bd8a008e67990fa7d094.png[/img][img]http://i4.imageban.ru/out/2018/01/13/6253b33efb01fed417e02ec9c1eaf138.png[/img][img]http://i3.imageban.ru/out/2018/01/13/9538fd29291137fe7e77ff8fd1ca0208.png[/img][img]http://i2.imageban.ru/out/2018/01/13/3b7254afb4ac67ae384a3efbddf766d4.png[/img][img]http://i2.imageban.ru/out/2018/01/13/1e5dffec65505db526a8d8710f44ec1d.png[/img][img]http://i1.imageban.ru/out/2018/01/13/91db3418955f92fff3f4f1ceff15314e.png[/img]
    Еще похожие »

    Как скачать?
    1. Качаем UTorrent версии 2.0 и выше отсюда
    2. После установки, жмем на ссылку Скачать торрент.
    3. Открываем его через utorrent.
    4. Ждем пока подключатся участники.
    5. Качаем.


    Комментарии о Семь смертей по рецепту / 7 morts sur ordonnance | BDRip
    Добавлять комментарии могут только зарегистрированные пользователи

    Зарегистрироваться или Войти


    Ближайшее в кино
    • Пианистка дата выхода 18 января 2018Пианистка
      Дата выхода: 18 января 2018
    • Форма воды дата выхода 18 января 2018Форма воды
      Дата выхода: 18 января 2018
    • Астрал 4: Последний ключ дата выхода 18 января 2018Астрал 4: Последний ключ
      Дата выхода: 18 января 2018
    • Темные времена дата выхода 18 января 2018Темные времена
      Дата выхода: 18 января 2018
    • Скиф дата выхода 18 января 2018Скиф
      Дата выхода: 18 января 2018
    • Приключения Паддингтона 2 дата выхода 18 января 2018Приключения Паддингтона 2
      Дата выхода: 18 января 2018
    • Карп отмороженный дата выхода 18 января 2018Карп отмороженный
      Дата выхода: 18 января 2018
    • Мешок без дна дата выхода 18 января 2018Мешок без дна
      Дата выхода: 18 января 2018
    • МУЛЬТ в кино. Выпуск №67. Зимний карнавал дата выхода 20 января 2018МУЛЬТ в кино. Выпуск №67. Зимний карнавал
      Дата выхода: 20 января 2018
    • Смерть Сталина дата выхода 25 января 2018Смерть Сталина
      Дата выхода: 25 января 2018
    • Zомбоящик дата выхода 25 января 2018Zомбоящик
      Дата выхода: 25 января 2018
    • Хэппи-энд дата выхода 25 января 2018Хэппи-энд
      Дата выхода: 25 января 2018
    • Побег из Рио дата выхода 25 января 2018Побег из Рио
      Дата выхода: 25 января 2018
    • Девушка в тумане дата выхода 25 января 2018Девушка в тумане
      Дата выхода: 25 января 2018
    • Выставка Hokusai Британского музея дата выхода 25 января 2018Выставка Hokusai Британского музея
      Дата выхода: 25 января 2018
    Вверх