• Игры для PS4
  • Игры для PS3
  • Игры для XBOX360
  • Игры для PC
  • Игры для PS2
  • Игры для PSP
  • Для телефонов
  • Музыка
  • Книги / Журналы
  • Обои
  • Опрос
    Удобен ли сайт в использовании?
      0
    • Очень удобен, все понятно1,1,false,300,full
    • Удобен1,2,false,300,full
    • Средне1,3,false,300,full
    • Неудобен, трудно ориентироваться1,4,false,300,full
    • Совсем неудобен1,5,false,300,full
    Статистика
    Всего онлайн -
    Гостей -
    Пользователей -
    Короли трекера
    Благодарности () Закрыть
    Информация о фильме
    Название: Год первого поцелуя / Год первых поцелуев
    Оригинальное название: Das Jahr der ersten Küsse / The Year of the First Kiss
    Год выхода: 2002
    Жанр: комедия, мелодрама
    Режиссер: Кай Вессель
    В ролях: Оливер Кориттке, Макс Мауфф, Диане Симонс-Виллемс, Томас Дрехзель, Луана Беллингхаузен, Михаэль Годде, Ребекка Хессинг, Эми Гринда, Михель Бесль, Марвин Гронен

    О фильме:
    Романтическая история взросления, школьной дружбы, первых подростковых безумств, сексуальных экспериментов и тайной любви к однокласснице Керстин, показанная глазами 15-летнего Тристана.

    [img]http://i65.fastpic.ru/big/2015/1119/11/721286271919d6408115461a89aadb11.gif[/img]     [img]http://i83.fastpic.ru/big/2016/1001/64/e971ae22580fd7d9031bc5669f213d64.gif[/img]

    Страна: Германия / D & D Filmproduktion, Media Select Breuer GmbH, MementoFilm
    Продолжительность: 01:33:01
    Перевод: авторский одноголосый [Юрий Муравский]

    Файл
    Качество: DVDRip-AVC
    Формат: MKV
    Видео: MPEG-4 AVC, 1024x576 (16:9), 25.000 fps, 2410 kbps, 0.163 bit/pixel
    Аудио #1: русский, AC3 2.0, 48 kHz, 192 kbps
    Аудио #2: немецкий, AC3 2.0, 48 kHz, 192 kbps

    MediaInfo
    Формат                                   : Matroska
    Версия формата                           : Version 4 / Version 2
    Размер файла                             : 1,82 Гбайт
    Продолжительность                        : 1 ч. 33 м.
    Общий поток                              : 2796 Кбит/сек
    Дата кодирования                         : UTC
    Программа кодирования                    : mkvmerge v7.9.0 ("Birds") 64bit
    Библиотека кодирования                   : Lavf55.12.0

    Видео
    Идентификатор                            : 1
    Формат                                   : AVC
    Формат/Информация                        : Advanced Video Codec
    Профиль формата                          : High@L4.1
    Параметр CABAC формата                   : Да
    Параметр ReFrames формата                : 4 кадра
    Идентификатор кодека                     : V_MPEG4/ISO/AVC
    Продолжительность                        : 1 ч. 33 м.
    Битрейт                                  : 2410 Кбит/сек
    Ширина                                   : 1024 пикселя
    Высота                                   : 576 пикселей
    Соотношение сторон                       : 16:9
    Режим частоты кадров                     : Постоянный
    Частота кадров                           : 25,000 кадров/сек
    Цветовое пространство                    : YUV
    Субдискретизация насыщенности            : 4:2:0
    Битовая глубина                          : 8 бит
    Тип развёртки                            : Прогрессивная
    Бит/(Пиксели*Кадры)                      : 0.163
    Размер потока                            : 1,53 Гбайт (84%)
    Библиотека кодирования                   : x264 core 142 r2479 dd79a61
    Настройки программы                      : cabac=1 / ref=3 / deblock=1:-3:-3 / analyse=0x3:0x113 / me=hex / subme=9 / psy=1 / psy_rd=1.00:0.00 / mixed_ref=1 / me_range=16 / chroma_me=1 / trellis=1 / 8x8dct=1 / cqm=0 / deadzone=21,11 / fast_pskip=1 / chroma_qp_offset=-2 / threads=6 / lookahead_threads=1 / sliced_threads=0 / nr=0 / decimate=1 / interlaced=0 / bluray_compat=0 / constrained_intra=0 / bframes=3 / b_pyramid=2 / b_adapt=1 / b_bias=0 / direct=1 / weightb=1 / open_gop=0 / weightp=2 / keyint=250 / keyint_min=25 / scenecut=40 / intra_refresh=0 / rc_lookahead=40 / rc=2pass / mbtree=1 / bitrate=2410 / ratetol=1.0 / qcomp=0.60 / qpmin=0 / qpmax=69 / qpstep=4 / cplxblur=20.0 / qblur=0.5 / vbv_maxrate=62500 / vbv_bufsize=78125 / nal_hrd=none / filler=0 / ip_ratio=1.40 / aq=1:1.00
    Default                                  : Да
    Forced                                   : Нет
    Цветовой диапазон                        : Limited
    Основные цвета                           : BT.601 PAL
    Характеристики трансфера                 : BT.709
    Коэффициенты матрицы                     : BT.601

    Аудио #1
    Идентификатор                            : 2
    Формат                                   : AC-3
    Формат/Информация                        : Audio Coding 3
    Расширение режима                        : CM (complete main)
    Параметр Endianness формата              : Big
    Идентификатор кодека                     : A_AC3
    Продолжительность                        : 1 ч. 33 м.
    Вид битрейта                             : Постоянный
    Битрейт                                  : 192 Кбит/сек
    Каналы                                   : 2 канала
    Расположение каналов                     : Front: L R
    Частота                                  : 48,0 КГц
    Метод сжатия                             : С потерями
    Задержка видео                           : -80 мс.
    Размер потока                            : 128 Мбайт (7%)
    Язык                                     : Russian
    Default                                  : Да
    Forced                                   : Нет

    Аудио #2
    Идентификатор                            : 3
    Формат                                   : AC-3
    Формат/Информация                        : Audio Coding 3
    Расширение режима                        : CM (complete main)
    Параметр Endianness формата              : Big
    Идентификатор кодека                     : A_AC3
    Продолжительность                        : 1 ч. 33 м.
    Вид битрейта                             : Постоянный
    Битрейт                                  : 192 Кбит/сек
    Каналы                                   : 2 канала
    Расположение каналов                     : Front: L R
    Частота                                  : 48,0 КГц
    Метод сжатия                             : С потерями
    Задержка видео                           : -5 мс.
    Размер потока                            : 128 Мбайт (7%)
    Язык                                     : German
    Default                                  : Нет
    Forced                                   : Нет

    Меню
    00:00:00.000                             : :Chapter 1
    00:04:56.960                             : :Chapter 2
    00:07:37.720                             : :Chapter 3
    00:13:41.600                             : :Chapter 4
    00:17:46.720                             : :Chapter 5
    00:22:31.360                             : :Chapter 6
    00:31:57.600                             : :Chapter 7
    00:37:27.720                             : :Chapter 8
    00:43:21.800                             : :Chapter 9
    00:49:12.720                             : :Chapter 10
    00:59:27.000                             : :Chapter 11
    01:05:36.800                             : :Chapter 12
    01:18:13.600                             : :Chapter 13
    01:22:35.360                             : :Chapter 14
    01:30:56.200                             : :Chapter 15
    Свернуть


    Скриншоты
    [screen]http://i82.fastpic.ru/big/2016/1030/37/cc689839bdf0286ddb058aa8e2e52937.jpg[/screen][screen]http://i82.fastpic.ru/big/2016/1030/06/0a1e879b60de51a178747ef2cb543606.jpg[/screen][screen]http://i82.fastpic.ru/big/2016/1030/3b/9c3822c85c36c3664f536f81d858ac3b.jpg[/screen][screen]http://i82.fastpic.ru/big/2016/1030/17/f0ad0f1a7bb97cd0185993023914e717.jpg[/screen][screen]http://i82.fastpic.ru/big/2016/1030/01/de171949967186f3288310e1be082401.jpg[/screen][screen]http://i82.fastpic.ru/big/2016/1030/3d/52406356ab1c8cb90d4ddf4f07c9b53d.jpg[/screen][screen]http://i82.fastpic.ru/big/2016/1030/2a/b0aeb0426d3c2993d70efe699771662a.jpg[/screen][screen]http://i82.fastpic.ru/big/2016/1030/76/6a3b63a39d46343608bf199203143376.jpg[/screen][screen]http://i82.fastpic.ru/big/2016/1030/a7/4570ec75cad7bcb9c4a80bb4db415da7.jpg[/screen][screen]http://i82.fastpic.ru/big/2016/1030/44/1d1f3813c08dc5c9379e36f3d2ee0a44.jpg[/screen][screen]http://i82.fastpic.ru/big/2016/1030/d6/da0f285a93633ba0783f5f9b2f7af3d6.jpg[/screen][screen]http://i82.fastpic.ru/big/2016/1030/68/912edb5b4064db656b442def0985ed68.jpg[/screen][screen]http://i82.fastpic.ru/big/2016/1030/cb/c394f41b3ea9530275ac4c5ee3241bcb.jpg[/screen][screen]http://i82.fastpic.ru/big/2016/1030/c7/3c6720764cbf677fda08fce9d15c09c7.jpg[/screen][screen]http://i82.fastpic.ru/big/2016/1030/37/8f93218a7f001f946114979894ca5237.jpg[/screen][screen]http://i82.fastpic.ru/big/2016/1030/d6/b15be7ddedea72628f609507bcc564d6.jpg[/screen][screen]http://i82.fastpic.ru/big/2016/1030/6f/2beb20efabd2b1a354395679562ef46f.jpg[/screen][screen]http://i82.fastpic.ru/big/2016/1030/b0/c291f8f51b05f1d68771aec2b40792b0.jpg[/screen]Свернуть
    Похожие раздачи Искать похожие
    Инструкция по скачиванию
     1  Качаем uTorrent версии 2.0 и выше
     2  После установки, жмем выше под постером на ссылку Скачать [MediaGet] или Скачать .torrent
     3  Открываем скачанный файл через соответствующий клиент: MediaGet или uTorrent
     4  Ждем пока подключатся участники
     5  Качаем
    Комментарии о  Год первого поцелуя / Das Jahr der ersten Küsse | DVDRip-AVC 
    Ближайшее в кино
    Вверх