• Игры для PS4
  • Игры для PS3
  • Игры для XBOX360
  • Игры для PC
  • Игры для PS2
  • Игры для PSP
  • Для телефонов
  • Музыка
  • Книги / Журналы
  • Обои
  • Опрос
    Откуда Вы о нас узнали?
      0
    • От знакомых2,1,false,300,full
    • Из социальных сетей2,2,false,300,full
    • Из поисковых систем2,3,false,300,full
    • Другое2,4,false,300,full
    Статистика
    Всего онлайн -
    Гостей -
    Пользователей -
    Короли трекера
    Благодарности () Закрыть
    Информация о фильме
    Название: Огнем и мечом
    Оригинальное название: Ogniem i mieczem
    Год выпуска: 1999
    Жанр:  драма, мелодрама, приключения, военный, история
    Режиссер: Ежи Гоффман
    В ролях: Михал Жебровский (Jan Skrzetuski), Александр Домогаров (Jurko Bohun), Изабелла Скорупко (Helena Kurcewiczówna), Анна Тереза Новак, Кшиштоф Ковалевский (Jan Onufry Zagloba), Богдан Ступка (Bohdan Chmielnicki), Анджей Северин (Jeremi Wisniowecki), Збигнев Замаховский (Michal Wolodyjowski), Виктор Зборовский (Longinus Podbipieta), Войчех Малайкат (Rzedzian), Эва Висьневска (Kurcewiczowa), Руслана Писанка (Horpyna)

    О фильме:
    XVII век. Речь Посполита объята огнем, спровоцированным ссорой православного полковника Богдана Хмельницкого с паном Чаплинским, который запорол насмерть сына полковника. Оскорбленный Хмельницкий поднял Запорожскую Сечь, призвал крымских татар под предводительством Туган-бея, разбил войска короля Владислава.

    На фоне диких грабежей, погромов, грандиозных батальных сцен благородный шляхтич Скшетуский и жестокий казацкий атаман Богун добиваются любви красавицы-полячки…



    Страна: Польша
    Студия: Agencja Produkcji Filmowej
    Продолжительность: 02:55:11
    Перевод: Профессиональный (многоголосый, закадровый) Виккон + Профессиональный (двухголосый, закадровый) CP-Digital + Профессиональный (многоголосый, закадровый) 1+1

    Файл
    Качество: BDRip 720p
    Формат: Matroska
    Видео: 1280x640 at 25.000 fps, x264, ~5200 kbps avg
    Аудио#1: Russian: 48 kHz, AC3, 2/0 (L,R) ch, ~320 kbps avg |Многоголосый закадровый, Виккон|
    Аудио#2: Russian: 48 kHz, AC3, 3/2 (L,C,R,l,r) + LFE ch, ~448 kbps avg |Двухголосый закадровый, CP-Digital|
    Аудио#3: Russian: 48 kHz, AC3, 2/0 (L,R) ch, ~320 kbps avg |Многоголосый закадровый, 1+1|
    Аудио#4: Ukrainian: 48 kHz, AC3, 2/0 (L,R) ch, ~320 kbps avg |Многоголосый закадровый, Виккон|
    Аудио#5: Polish: 48 kHz, AC3, 3/2 (L,C,R,l,r) + LFE ch, ~448 kbps avg
    Субтитры: Russian, Ukrainian, English, Polish, Spanish

    ***Сохранены оригинальные главы как на Blu-ray.
    ***Релиз: whalekilla.

    Знаете ли вы, что...
    Фильм снят по мотивам романа Хенрика Сенкевича «Огнем и мечом» (Ogniem i mieczem, 1884).
    Премьера телеверсии (4 серии почти по часу) состоялась 14 апреля 2001 года.
    Пожилой Даниэль Ольбрыхский исполняет в фильме роль крымского полководца Тугай Бея. В фильме «Пан Володыевский» (1969) он же сыграл сына Тугай Бея, Азию Тугайбеевича.
    Музыкальная тема польских войск и финальная - песня «Гэй, соколы».
    В сцене переправы через реку пан Заглоба, переодетый в странствующего лирника, исполняет песню, «Наливаймо, браття». Это явный анахронизм, так как сама песня появилась в 1960-е года и принадлежит перу Вадима Крищенко (слова) и Виктора Лисовола (музыка). Тем не менее, из-за её популярности Ежи Гоффман посчитал песню народной и использовал в фильме, даже не подозревая о том, что могут быть затронуты авторские права. Авторы же, в свою очередь, были только рады такому повороту событий и никаких жалоб не подавали.
    В начале 3-й серии можно заметить, что пехотинцы Польши вооружены винтовками Мосина.
    Когда при защите Збаража гусары выдвигаются навстречу атакующим - Скшетуский в шапке. При столкновении с казаками шапка исчезает.
    Свернуть


    MediaInfo
    Общее
    Уникальный идентификатор                 : 211700985041195304679954516208420129174 (0x9F44206B21E747E6929D278392780996)
    Полное имя                               : Ogniem.i.mieczem.1999.BDRip.(720p).mkv
    Формат                                   : Matroska
    Версия формата                           : Version 4 / Version 2
    Размер файла                             : 8,61 Гбайт
    Продолжительность                        : 2 ч. 55 м.
    Общий поток                              : 7038 Кбит/сек
    Название фильма                          : Ogniem i mieczem (1999)
    Дата кодирования                         : UTC 2017-12-21 14:23:53
    Программа кодирования                    : mkvmerge v6.9.1 ("Blue Panther") 64bit built on Apr 18 2014 18:23:38
    Библиотека кодирования                   : libebml v1.3.0 + libmatroska v1.4.1

    Видео
    Идентификатор                            : 1
    Формат                                   : AVC
    Формат/Информация                        : Advanced Video Codec
    Профиль формата                          : High@L4.1
    Параметр CABAC формата                   : Да
    Параметр ReFrames формата                : 10 кадров
    Идентификатор кодека                     : V_MPEG4/ISO/AVC
    Продолжительность                        : 2 ч. 55 м.
    Битрейт                                  : 5179 Кбит/сек
    Ширина                                   : 1280 пикселей
    Высота                                   : 640 пикселей
    Соотношение сторон                       : 2,000
    Режим частоты кадров                     : Постоянный
    Частота кадров                           : 25,000 кадров/сек
    Цветовое пространство                    : YUV
    Субдискретизация насыщенности            : 4:2:0
    Битовая глубина                          : 8 бит
    Тип развёртки                            : Прогрессивная
    Бит/(Пиксели*Кадры)                      : 0.253
    Размер потока                            : 6,17 Гбайт (72%)
    Заголовок                                : Ogniem i mieczem (1999)
    Библиотека кодирования                   : x264 core 148 r2744 b97ae06
    Настройки программы                      : cabac=1 / ref=10 / deblock=1:-3:-3 / analyse=0x3:0x133 / me=umh / subme=11 / psy=1 / psy_rd=1.00:0.00 / mixed_ref=1 / me_range=32 / chroma_me=1 / trellis=2 / 8x8dct=1 / cqm=0 / deadzone=21,11 / fast_pskip=1 / chroma_qp_offset=-2 / threads=6 / lookahead_threads=1 / sliced_threads=0 / nr=0 / decimate=1 / interlaced=0 / bluray_compat=0 / constrained_intra=0 / bframes=16 / b_pyramid=2 / b_adapt=2 / b_bias=0 / direct=3 / weightb=1 / open_gop=0 / weightp=2 / keyint=250 / keyint_min=25 / scenecut=40 / intra_refresh=0 / rc_lookahead=60 / rc=2pass / mbtree=1 / bitrate=5179 / ratetol=1.0 / qcomp=0.60 / qpmin=0 / qpmax=69 / qpstep=4 / cplxblur=20.0 / qblur=0.5 / vbv_maxrate=50000 / vbv_bufsize=62500 / nal_hrd=none / filler=0 / ip_ratio=1.40 / aq=1:1.00
    Язык                                     : Polish
    Default                                  : Да
    Forced                                   : Нет

    Аудио #1
    Идентификатор                            : 2
    Формат                                   : AC-3
    Формат/Информация                        : Audio Coding 3
    Расширение режима                        : CM (complete main)
    Параметр Endianness формата              : Big
    Идентификатор кодека                     : A_AC3
    Продолжительность                        : 2 ч. 55 м.
    Вид битрейта                             : Постоянный
    Битрейт                                  : 320 Кбит/сек
    Каналы                                   : 2 канала
    Расположение каналов                     : Front: L R
    Частота                                  : 48,0 КГц
    Битовая глубина                          : 16 бит
    Метод сжатия                             : С потерями
    Размер потока                            : 401 Мбайт (5%)
    Заголовок                                : AC3, 2 ch, 320 Kbps, MVO, "Виккон"
    Язык                                     : Russian
    Default                                  : Да
    Forced                                   : Нет

    Аудио #2
    Идентификатор                            : 3
    Формат                                   : AC-3
    Формат/Информация                        : Audio Coding 3
    Расширение режима                        : CM (complete main)
    Параметр Endianness формата              : Big
    Идентификатор кодека                     : A_AC3
    Продолжительность                        : 2 ч. 55 м.
    Вид битрейта                             : Постоянный
    Битрейт                                  : 448 Кбит/сек
    Каналы                                   : 6 каналов
    Расположение каналов                     : Front: L C R, Side: L R, LFE
    Частота                                  : 48,0 КГц
    Битовая глубина                          : 16 бит
    Метод сжатия                             : С потерями
    Размер потока                            : 561 Мбайт (6%)
    Заголовок                                : AC3, 6 ch, 448 Kbps, DVO, "CP-Digital"
    Язык                                     : Russian
    Default                                  : Нет
    Forced                                   : Нет

    Аудио #3
    Идентификатор                            : 4
    Формат                                   : AC-3
    Формат/Информация                        : Audio Coding 3
    Расширение режима                        : CM (complete main)
    Параметр Endianness формата              : Big
    Идентификатор кодека                     : A_AC3
    Продолжительность                        : 2 ч. 55 м.
    Вид битрейта                             : Постоянный
    Битрейт                                  : 320 Кбит/сек
    Каналы                                   : 2 канала
    Расположение каналов                     : Front: L R
    Частота                                  : 48,0 КГц
    Битовая глубина                          : 16 бит
    Метод сжатия                             : С потерями
    Размер потока                            : 401 Мбайт (5%)
    Заголовок                                : AC3, 2 ch, 320 Kbps, MVO, "1+1"
    Язык                                     : Russian
    Default                                  : Нет
    Forced                                   : Нет

    Аудио #4
    Идентификатор                            : 5
    Формат                                   : AC-3
    Формат/Информация                        : Audio Coding 3
    Расширение режима                        : CM (complete main)
    Параметр Endianness формата              : Big
    Идентификатор кодека                     : A_AC3
    Продолжительность                        : 2 ч. 55 м.
    Вид битрейта                             : Постоянный
    Битрейт                                  : 320 Кбит/сек
    Каналы                                   : 2 канала
    Расположение каналов                     : Front: L R
    Частота                                  : 48,0 КГц
    Битовая глубина                          : 16 бит
    Метод сжатия                             : С потерями
    Размер потока                            : 401 Мбайт (5%)
    Заголовок                                : AC3, 2 ch, 320 Kbps, Українська, "Виккон"
    Язык                                     : Ukrainian
    Default                                  : Нет
    Forced                                   : Нет

    Аудио #5
    Идентификатор                            : 6
    Формат                                   : AC-3
    Формат/Информация                        : Audio Coding 3
    Расширение режима                        : CM (complete main)
    Параметр Endianness формата              : Big
    Идентификатор кодека                     : A_AC3
    Продолжительность                        : 2 ч. 55 м.
    Вид битрейта                             : Постоянный
    Битрейт                                  : 448 Кбит/сек
    Каналы                                   : 6 каналов
    Расположение каналов                     : Front: L C R, Side: L R, LFE
    Частота                                  : 48,0 КГц
    Битовая глубина                          : 16 бит
    Метод сжатия                             : С потерями
    Размер потока                            : 561 Мбайт (6%)
    Заголовок                                : AC3, 6 ch, 448 Kbps, Original
    Язык                                     : Polish
    Default                                  : Нет
    Forced                                   : Нет

    Текст #1
    Идентификатор                            : 7
    Формат                                   : UTF-8
    Идентификатор кодека                     : S_TEXT/UTF8
    Идентификатор кодека/Информация          : UTF-8 Plain Text
    Заголовок                                : Юрий Бедношея
    Язык                                     : Russian
    Default                                  : Нет
    Forced                                   : Нет

    Текст #2
    Идентификатор                            : 8
    Формат                                   : UTF-8
    Идентификатор кодека                     : S_TEXT/UTF8
    Идентификатор кодека/Информация          : UTF-8 Plain Text
    Заголовок                                : Леонид Дмитренко
    Язык                                     : Ukrainian
    Default                                  : Нет
    Forced                                   : Нет

    Текст #3
    Идентификатор                            : 9
    Формат                                   : UTF-8
    Идентификатор кодека                     : S_TEXT/UTF8
    Идентификатор кодека/Информация          : UTF-8 Plain Text
    Язык                                     : English
    Default                                  : Нет
    Forced                                   : Нет

    Текст #4
    Идентификатор                            : 10
    Формат                                   : UTF-8
    Идентификатор кодека                     : S_TEXT/UTF8
    Идентификатор кодека/Информация          : UTF-8 Plain Text
    Язык                                     : Polish
    Default                                  : Нет
    Forced                                   : Нет

    Текст #5
    Идентификатор                            : 11
    Формат                                   : UTF-8
    Идентификатор кодека                     : S_TEXT/UTF8
    Идентификатор кодека/Информация          : UTF-8 Plain Text
    Язык                                     : Spanish
    Default                                  : Нет
    Forced                                   : Нет

    Меню
    00:00:00.000                             : pl:00:00:00.000
    00:05:54.400                             : pl:00:05:54.400
    00:15:25.000                             : pl:00:15:25.000
    00:22:43.000                             : pl:00:22:43.000
    00:28:00.720                             : pl:00:28:00.720
    00:32:46.720                             : pl:00:32:46.720
    00:41:42.720                             : pl:00:41:42.720
    00:51:00.680                             : pl:00:51:00.680
    00:55:09.760                             : pl:00:55:09.760
    01:02:48.120                             : pl:01:02:48.120
    01:12:38.640                             : pl:01:12:38.640
    01:20:54.840                             : pl:01:20:54.840
    01:26:07.040                             : pl:01:26:07.040
    01:35:38.160                             : pl:01:35:38.160
    01:40:54.320                             : pl:01:40:54.320
    01:48:27.920                             : pl:01:48:27.920
    01:53:20.280                             : pl:01:53:20.280
    01:59:50.480                             : pl:01:59:50.480
    02:09:30.360                             : pl:02:09:30.360
    02:18:01.840                             : pl:02:18:01.840
    02:27:15.640                             : pl:02:27:15.640
    02:33:10.040                             : pl:02:33:10.040
    02:39:58.920                             : pl:02:39:58.920
    02:47:33.520                             : pl:02:47:33.520Свернуть


    Скриншоты
    [screen]http://img12.lostpic.net/2018/01/13/a19791d07f3029a0f4b0915ec05c09eb.png[/screen][screen]http://img12.lostpic.net/2018/01/13/f3c6340745eba2b8da8947177ca04a39.png[/screen][screen]http://img12.lostpic.net/2018/01/13/5bce8c8494ac6a017799e71c9ddf542b.png[/screen][screen]http://img12.lostpic.net/2018/01/13/c1975275322e8e2e95553d40e6ed0261.png[/screen]Свернуть
    Похожие раздачи Искать похожие
    Инструкция по скачиванию
     1  Качаем uTorrent версии 2.0 и выше
     2  После установки, жмем выше под постером на ссылку Скачать [MediaGet] или Скачать .torrent
     3  Открываем скачанный файл через соответствующий клиент: MediaGet или uTorrent
     4  Ждем пока подключатся участники
     5  Качаем
    Комментарии о  Огнем и мечом / Ogniem i mieczem | BDRip 720p 
    Ближайшее в кино
    Вверх