• Игры для PS4
  • Игры для PS3
  • Игры для XBOX360
  • Игры для PC
  • Игры для PS2
  • Игры для PSP
  • Для телефонов
  • Музыка
  • Книги / Журналы
  • Обои
  • Опрос
    Удобен ли сайт в использовании?
      0
    • Очень удобен, все понятно1,1,false,300,full
    • Удобен1,2,false,300,full
    • Средне1,3,false,300,full
    • Неудобен, трудно ориентироваться1,4,false,300,full
    • Совсем неудобен1,5,false,300,full
    Статистика
    Всего онлайн -
    Гостей -
    Пользователей -
    Короли трекера
    Благодарности () Закрыть
    Название: Три билборда на границе Эббинга, Миссури
    Оригинальное название: Three Billboards Outside Ebbing, Missouri
    Год выхода: 2017
    Жанр: драма, комедия, криминал
    Режиссер: Мартин МакДона
    В ролях: Вуди Харрельсон, Фрэнсис МакДорманд, Калеб Лэндри Джонс, Керри Кондон, Эбби Корниш, Сэм Рокуэлл, Алехандро Барриос, Джейсон Редфорд, Даррел Бритт-Гибсон

    О фильме: Спустя несколько месяцев после убийства дочери Милдред Хейс преступники так и не найдены. Отчаявшаяся женщина решается на смелый шаг, арендуя на въезде в город три биллборда с посланием к авторитетному главе полиции Уильяму Уиллоуби. Когда в ситуацию оказывается втянут еще и заместитель шерифа, инфантильный маменькин сынок со склонностью к насилию, офицер Диксон, борьба между Милдред и властями города только усугубляется.



    Страна: Великобритания США
    Производство: Blueprint Pictures
    Продолжительность: 01:55:04
    Перевод: Aвторский (одноголосый)

    Формат: MKV
    Видео: 720x304, 29.970 fps, XviD, 1585 kbps
    Аудио: Русский, Dolby Digital, 2.0, 192 kbps - Яроцкий

    [img]http://i103.fastpic.ru/big/2017/1225/c7/76c13c065db91c4f4a1ff0b5b6b639c7.png[/img]

    MediaInfo
    Format                      : Matroska
    Format version              : Version 4 / Version 2
    File size                   : 1.46 GiB
    Duration                    : 1 h 55 min
    Overall bit rate            : 1 813 kb/s
    Encoded date                : UTC 2018-01-12 21:04:35
    Writing application         : mkvmerge v6.0.0 ("Coming Up For Air") built on Jan 20 2013 09:52:00
    Writing library             : libebml v1.3.0 + libmatroska v1.4.0
    Cover                       : Yes
    Attachments                 : cover.jpg

    Video
    ID                          : 1
    Format                      : MPEG-4 Visual
    Format profile              : Advanced Simple@L5
    Format settings, BVOP       : 2
    Format settings, QPel       : Yes
    Format settings, GMC        : No warppoints
    Format settings, Matrix     : Default (H.263)
    Muxing mode                 : Packed bitstream
    Codec ID                    : V_MS/VFW/FOURCC / XVID
    Codec ID/Hint               : XviD
    Duration                    : 1 h 55 min
    Bit rate                    : 1 585 kb/s
    Width                       : 720 pixels
    Height                      : 304 pixels
    Display aspect ratio        : 2.35:1
    Frame rate mode             : Constant
    Frame rate                  : 29.970 (30000/1001) FPS
    Color space                 : YUV
    Chroma subsampling          : 4:2:0
    Bit depth                   : 8 bits
    Scan type                   : Progressive
    Compression mode            : Lossy
    Bits/(Pixel*Frame)          : 0.242
    Stream size                 : 1.27 GiB (87%)
    Title                       : DVDScreener.FOCS-PB
    Writing library             : XviD 1.2.1 (UTC 2008-12-04)
    Default                     : Yes
    Forced                      : No

    Audio
    ID                          : 2
    Format                      : AC-3
    Format/Info                 : Audio Coding 3
    Format settings, Endianness : Big
    Codec ID                    : A_AC3
    Duration                    : 1 h 55 min
    Bit rate mode               : Constant
    Bit rate                    : 192 kb/s
    Channel(s)                  : 2 channels
    Channel positions           : Front: L R
    Sampling rate               : 48.0 kHz
    Frame rate                  : 31.250 FPS (1536 SPF)
    Bit depth                   : 16 bits
    Compression mode            : Lossy
    Stream size                 : 158 MiB (11%)
    Title                       : AVO Kyberpunk
    Language                    : Russian
    Service kind                : Complete Main
    Default                     : Yes
    Forced                      : NoСвернуть


    Похожие раздачи Искать похожие
    Инструкция по скачиванию
     1  Качаем uTorrent версии 2.0 и выше
     2  После установки, жмем выше под постером на ссылку Скачать [MediaGet] или Скачать .torrent
     3  Открываем скачанный файл через соответствующий клиент: MediaGet или uTorrent
     4  Ждем пока подключатся участники
     5  Качаем
    Комментарии о  Три билборда на границе Эббинга, Миссури / Three Billboards Outside Ebbing, Missouri | DVDScr 
    Ближайшее в кино
    Вверх