• Игры для PS3
  • Игры для XBOX360
  • Игры для PC
  • Игры для PS2
  • Игры для PSP
  • Для телефонов
  • Музыка
  • Книги/Журналы
  • Обои
  •  
    Опрос
    Удобен ли сайт в использовании?
      0
    • Очень удобен, все понятно1,1,false,300,full
    • Удобен1,2,false,300,full
    • Средне1,3,false,300,full
    • Неудобен, трудно ориентироваться1,4,false,300,full
    • Совсем неудобен1,5,false,300,full
    Статистика
    Загрузка...
    Света с того света [Серии 01-08 из 16] | HDTV 1080p
    Статус  Проверено
    В закладки
    Модератор: Max

    Света с того света [Серии 01-08 из 16] | HDTV 1080p [Сериалы 2017] скачать торрентом/torrent бесплатно

    Год выхода
    Категории
    Язык
    Закачал
    Max | 13 января 2018 в 21ч 50м 21с
    Раздел
    Отзывов
    0
    Раздают: 0 Качают: 0 Скачали: 0 Размер: 8.19 GB
    Файлы (8) | Благодарности | Хэш код |
    0/5
    0
    Поддержи нас — расскажи друзьям!
    Orbitum
    Новый интернет-браузер Быстрее загружает сайты Экономит интернет—трафик Меняет оформление страницы ВК Блокирует всю рекламу на сайтах Загружает торренты как

    µTorrent

    клиент
    Объеденяет все твои чаты из соц. сетей в один Проигрывает твою музыку не заходя во ВКонтакте
    Скачать и многое другое... Подробности на сайте производителя
    Информация о фильме
    Название: Света с того света / Сезон 1 / Серии 1-8 из 16)
    Год выпуска: 2018

    Страна: Россия
    Жанр: комедия

    Перевод: Не требуется [Русский]
    Продолжительность: 00:19:20

    Режиссер: Максим Пежемский
    В ролях: Мария Машкова (Света), Анна Котова (Ирка), Кирилл Каганович (Паша), Александр Ратников (Игорь), Борис Каморзин (Цыпин), Евгения Дмитриева (Оксана), Виктор Супрун (Мент), Артем Лысков (Дылда), Вилен Бабичев (амбал), Юлия Писаренко (администратор салона красоты), Вероника Тимофеева (Анжела), Артем Маркарьян (очкарик)

    Описание:
    «Света с того света» - это история про обаятельную мошенницу, девушку Свету, после несчастного случая оказавшуюся ограниченной в движении. Чтобы вновь встать на ноги, Свете нужна платная операция. Но как заработать, если нет возможности даже выйти из дома? У Светы появляется идея! На просторах интернета она, представляясь магом-биоэнерготерапевтом Светозарой, за небольшую плату помогает людям решить их личные проблемы.

    Рейтинг:
    [img]https://rating.kinopoisk.ru/893845.gif[/img]

    Качество: HDTV 1080p
    Формат: MKV
    Видео: AVC, 1920x1080 (16:9), 5680 kbps, 25 fps, 0,110 bpp
    Аудио: AC3 / 2.0 / 48 kHz / 192 kbps /

    ОтчетМедиаИнфо

    General
    Unique ID                                : 254551061202260591981322977498838158233 (0xBF80C0490A2D275D8ECC832E2A454B99)
    Complete name                            : E:Sveta s togo sveta 2018 HDTV 1080p R.G.GeneralfilmSveta s togo sveta..s01.e05.2018.HDTV 1080p.by.White Smoke.R.G.Generalfilm.mkv
    Format                                   : Matroska
    Format version                           : Version 4 / Version 2
    File size                                : 829 MiB
    Duration                                 : 19 min
    Overall bit rate mode                    : Constant
    Overall bit rate                         : 5 991 kb/s
    Movie name                               : Sveta s togo sveta..s01.e05.2018.HDTV 1080p.by.White Smoke.R.G.Generalfilm.mkv
    Encoded date                             : UTC 2018-01-13 17:06:27
    Writing application                      : mkvmerge v6.8.0 ("Theme for Great Cities") 64bit built on Mar  2 2014 21:34:26
    Writing library                          : libebml v1.3.0 + libmatroska v1.4.1

    Video
    ID                                       : 1
    Format                                   : AVC
    Format/Info                              : Advanced Video Codec
    Format profile                           : High@L4.1
    Format settings, CABAC                   : Yes
    Format settings, ReFrames                : 3 frames
    Codec ID                                 : V_MPEG4/ISO/AVC
    Duration                                 : 19 min
    Bit rate mode                            : Constant
    Bit rate                                 : 5 680 kb/s
    Nominal bit rate                         : 7 051 kb/s
    Width                                    : 1 920 pixels
    Height                                   : 1 080 pixels
    Display aspect ratio                     : 16:9
    Frame rate mode                          : Constant
    Frame rate                               : 25.000 FPS
    Standard                                 : PAL
    Color space                              : YUV
    Chroma subsampling                       : 4:2:0
    Bit depth                                : 8 bits
    Scan type                                : Progressive
    Bits/(Pixel*Frame)                       : 0.110
    Stream size                              : 786 MiB (95%)
    Default                                  : Yes
    Forced                                   : No
    Color range                              : Limited
    Color primaries                          : BT.709
    Transfer characteristics                 : BT.709
    Matrix coefficients                      : BT.709

    Audio
    ID                                       : 2
    Format                                   : AC-3
    Format/Info                              : Audio Coding 3
    Mode extension                           : CM (complete main)
    Format settings, Endianness              : Big
    Codec ID                                 : A_AC3
    Duration                                 : 19 min
    Bit rate mode                            : Constant
    Bit rate                                 : 192 kb/s
    Channel(s)                               : 2 channels
    Channel positions                        : Front: L R
    Sampling rate                            : 48.0 kHz
    Frame rate                               : 31.250 FPS (1536 spf)
    Compression mode                         : Lossy
    Stream size                              : 26.6 MiB (3%)
    Default                                  : Yes
    Forced                                   : No



    Скриншоты
    [img]http://i101.fastpic.ru/big/2018/0113/2a/458eec05e84bfe900cdc90bd16dbfe2a.jpg[/img][img]http://i100.fastpic.ru/big/2018/0113/b4/167f53398956a6933aab27eb89abdfb4.jpg[/img][img]http://i100.fastpic.ru/big/2018/0113/82/f4ea6d0416fad552171cd2262b06ee82.jpg[/img][img]http://i103.fastpic.ru/big/2018/0113/60/5ef4d6658c7fc0bc5bed508bdd559660.jpg[/img][img]http://i101.fastpic.ru/big/2018/0113/2a/7c9ed6ec71a0f7cf5c9b02fd49eb492a.jpg[/img][img]http://i99.fastpic.ru/big/2018/0113/94/8f6a41614c20d5ddef13ec0216421f94.jpg[/img]
    Еще похожие »

    Как скачать?
    1. Качаем UTorrent версии 2.0 и выше отсюда
    2. После установки, жмем на ссылку Скачать торрент.
    3. Открываем его через utorrent.
    4. Ждем пока подключатся участники.
    5. Качаем.


    Комментарии о Света с того света [Серии 01-08 из 16] | HDTV 1080p
    Добавлять комментарии могут только зарегистрированные пользователи

    Зарегистрироваться или Войти


    Ближайшее в кино
    • Пианистка дата выхода 18 января 2018Пианистка
      Дата выхода: 18 января 2018
    • Форма воды дата выхода 18 января 2018Форма воды
      Дата выхода: 18 января 2018
    • Астрал 4: Последний ключ дата выхода 18 января 2018Астрал 4: Последний ключ
      Дата выхода: 18 января 2018
    • Темные времена дата выхода 18 января 2018Темные времена
      Дата выхода: 18 января 2018
    • Скиф дата выхода 18 января 2018Скиф
      Дата выхода: 18 января 2018
    • Приключения Паддингтона 2 дата выхода 18 января 2018Приключения Паддингтона 2
      Дата выхода: 18 января 2018
    • Карп отмороженный дата выхода 18 января 2018Карп отмороженный
      Дата выхода: 18 января 2018
    • Мешок без дна дата выхода 18 января 2018Мешок без дна
      Дата выхода: 18 января 2018
    • МУЛЬТ в кино. Выпуск №67. Зимний карнавал дата выхода 20 января 2018МУЛЬТ в кино. Выпуск №67. Зимний карнавал
      Дата выхода: 20 января 2018
    • Смерть Сталина дата выхода 25 января 2018Смерть Сталина
      Дата выхода: 25 января 2018
    • Zомбоящик дата выхода 25 января 2018Zомбоящик
      Дата выхода: 25 января 2018
    • Хэппи-энд дата выхода 25 января 2018Хэппи-энд
      Дата выхода: 25 января 2018
    • Побег из Рио дата выхода 25 января 2018Побег из Рио
      Дата выхода: 25 января 2018
    • Девушка в тумане дата выхода 25 января 2018Девушка в тумане
      Дата выхода: 25 января 2018
    • Выставка Hokusai Британского музея дата выхода 25 января 2018Выставка Hokusai Британского музея
      Дата выхода: 25 января 2018
    Вверх