• Игры для PS4
  • Игры для PS3
  • Игры для XBOX360
  • Игры для PC
  • Игры для PS2
  • Игры для PSP
  • Для телефонов
  • Музыка
  • Книги / Журналы
  • Обои
  • Опрос
    Удобен ли сайт в использовании?
      0
    • Очень удобен, все понятно1,1,false,300,full
    • Удобен1,2,false,300,full
    • Средне1,3,false,300,full
    • Неудобен, трудно ориентироваться1,4,false,300,full
    • Совсем неудобен1,5,false,300,full
    Статистика
    Всего онлайн -
    Гостей -
    Пользователей -
    Короли трекера
    Благодарности () Закрыть
    Название: Три билборда на границе Эббинга, Миссури
    Оригинальное название: Three Billboards Outside Ebbing, Missouri
    Год выхода: 2017
    Жанр:  драма, комедия, криминал
    Режиссер: Мартин МакДона
    В ролях: Вуди Харрельсон, Фрэнсис МакДорманд, Калеб Лэндри Джонс, Керри Кондон, Эбби Корниш, Сэм Рокуэлл, Алехандро Барриос, Джейсон Редфорд, Даррел Бритт-Гибсон

    О фильме:
    Спустя несколько месяцев после убийства дочери Милдред Хейс преступники так и не найдены. Отчаявшаяся женщина решается на смелый шаг, арендуя на въезде в город три биллборда с посланием к авторитетному главе полиции Уильяму Уиллоуби. Когда в ситуацию оказывается втянут еще и заместитель шерифа, инфантильный маменькин сынок со склонностью к насилию, офицер Диксон, борьба между Милдред и властями города только усугубляется.



    Страна: США, Великобритания
    Производство: Fox Searchlight Pictures
    Продолжительность: 01:55:04
    Перевод: Aвторский (одноголосый)

    Формат: AVI
    Видео: Xvid, 720x304, ~1618 kbps
    Аудио: Dolby Digital, 2.0, 192 kbps - Яроцкий

    [img]http://i80.fastpic.ru/big/2016/0610/79/a8325e7926417bd183a05676998c3479.gif[/img]

    M/I
    General
    Complete name               : F:Three.Billboards.Outside.Ebbing,Missouri.2017.DVDScr.XVID.AC3.HQ.Hive-CM8[EtMovies].avi
    Format                      : AVI
    Format/Info                 : Audio Video Interleave
    File size                   : 1.46 GiB
    Duration                    : 1 h 55 min
    Overall bit rate            : 1 822 kb/s

    Video
    ID                          : 0
    Format                      : MPEG-4 Visual
    Format profile              : Advanced Simple@L5
    Format settings             : BVOP2 / QPel
    Format settings, BVOP       : 2
    Format settings, QPel       : Yes
    Format settings, GMC        : No warppoints
    Format settings, Matrix     : Default (H.263)
    Codec ID                    : XVID
    Codec ID/Hint               : XviD
    Duration                    : 1 h 55 min
    Bit rate                    : 1 618 kb/s
    Width                       : 720 pixels
    Height                      : 304 pixels
    Display aspect ratio        : 2.35:1
    Frame rate                  : 29.970 (30000/1001) FPS
    Color space                 : YUV
    Chroma subsampling          : 4:2:0
    Bit depth                   : 8 bits
    Scan type                   : Progressive
    Compression mode            : Lossy
    Bits/(Pixel*Frame)          : 0.247
    Stream size                 : 1.30 GiB (89%)
    Writing library             : XviD 1.2.1 (UTC 2008-12-04)

    Audio
    ID                          : 1
    Format                      : AC-3
    Format/Info                 : Audio Coding 3
    Codec ID                    : 2000
    Duration                    : 1 h 55 min
    Bit rate mode               : Constant
    Bit rate                    : 192 kb/s
    Channel(s)                  : 2 channels
    Channel positions           : Front: L R
    Sampling rate               : 48.0 kHz
    Frame rate                  : 31.250 FPS (1536 SPF)
    Bit depth                   : 16 bits
    Compression mode            : Lossy
    Delay relative to video     : 32 ms
    Stream size                 : 158 MiB (11%)
    Alignment                   : Split accross interleaves
    Interleave, duration        : 32  ms (0.96 video frame)
    Service kind                : Complete MainСвернуть


    Скриншоты
    [screen]http://i2.imageban.ru/out/2018/01/13/8fd8babc2b4f8465d1525f42242d2adf.jpg[/screen][screen]http://i6.imageban.ru/out/2018/01/13/340459e976dab03aed4be9174bb742dd.jpg[/screen][screen]http://i1.imageban.ru/out/2018/01/13/818b501f802c569cac46507ccfcbd9e3.jpg[/screen][screen]http://i4.imageban.ru/out/2018/01/13/eedc3d98601bcd0def93e3c8552d4ac2.jpg[/screen]Свернуть
    Похожие раздачи Искать похожие
    Инструкция по скачиванию
     1  Качаем uTorrent версии 2.0 и выше
     2  После установки, жмем выше под постером на ссылку Скачать [MediaGet] или Скачать .torrent
     3  Открываем скачанный файл через соответствующий клиент: MediaGet или uTorrent
     4  Ждем пока подключатся участники
     5  Качаем
    Комментарии о  Три билборда на границе Эббинга, Миссури / Three Billboards Outside Ebbing, Missouri | DVDScr 
    Ближайшее в кино
    Вверх