• Игры для PS4
  • Игры для PS3
  • Игры для XBOX360
  • Игры для PC
  • Игры для PS2
  • Игры для PSP
  • Для телефонов
  • Музыка
  • Книги / Журналы
  • Обои
  • Опрос
    Откуда Вы о нас узнали?
      0
    • От знакомых2,1,false,300,full
    • Из социальных сетей2,2,false,300,full
    • Из поисковых систем2,3,false,300,full
    • Другое2,4,false,300,full
    Статистика
    Всего онлайн -
    Гостей -
    Пользователей -
    Короли трекера
    
    Благодарности () Закрыть
    Быстрее загружает сайты Экономит интернет—трафик Меняет оформление страницы ВК Блокирует всю рекламу на сайтах Загружает торренты как µTorrent клиент Объеденяет все твои чаты из соц. сетей в один Проигрывает твою музыку не заходя во ВКонтакте
    Новый интернет-браузер
    Orbitum
    Скачать
    и многое другое... Подробности на сайте производителя
    Информация о фильме
    Название: Краш-тест Аглаи
    Оригинальное название: Crash Test Aglaé
    Год выхода: 2017
    Жанр: комедия
    Режиссер: Эрик Гравель
    В ролях: Индия Хэйр, Жюли Депардье, Иоланда Моро, Энн Шаррье, Фредерик Бель, Тристан Ульоа, Адиль Хуссэйн, Ханнс Цишлер, Дэниал Маратов, Алишер Маратов

    Описание: Для молодой Аглаи нет в жизни ничего важнее работы на заводе, где она проводит аварийные испытания автомобилей. Когда она узнаёт о переводе производства за границу, то соглашается, ко всеобщему удивлению, ехать в Индию, чтобы сохранить свою работу. В сопровождении двух коллег она отправляется на машине в рискованное путешествие на край света.



    Страна: Франция
    Продолжительность: 01:21:39
    Субтитры: русские, французские (хардсаб на другие языки), английские, немецкие, французские
    Оригинальная аудиодорожка: французский

    Файл
    Качество: WEB-DL 1080p
    Видео: AVC (x264), 1912x800 (2.40:1) at 25,000 fps, 4431 Кbps
    Звук: AC3; 384 Kbps; CBR; 6 ch; 48 khz | Французский |

    Скриншоты
    [screen]http://img12.lostpic.net/2018/01/21/84cff2d3dccc080b0318b2d874da2ccb.png[/screen][screen]http://img12.lostpic.net/2018/01/21/9757de57df16b3011ee1bc8380511ac2.png[/screen][screen]http://img12.lostpic.net/2018/01/21/66a24d42e08a66c71350a5f63daf2165.png[/screen]Свернуть


    MediaInfo
    General
    Unique ID                                : 234006799267808560081870055992276882028 (0xB00C11F7F8EF45D1AB1FA1838701126C)
    Complete name                            : Аглаин краш-тест.2017.RUSSUB.1080p.WEB-DL.x264-PHI.mkv
    Format                                   : Matroska
    Format version                           : Version 4 / Version 2
    File size                                : 2.80 GiB
    Duration                                 : 1 h 21 min
    Overall bit rate                         : 4 913 kb/s
    Movie name                               : Crash test Aglae [2017] [1080p] RUSSUB
    Encoded date                             : UTC 2018-01-20 02:20:41
    Writing application                      : mkvmerge v7.8.0 ("River Man") 32bit built on Mar 27 2015 16:18:02
    Writing library                          : libebml v1.3.1 + libmatroska v1.4.2

    Video
    ID                                       : 1
    Format                                   : AVC
    Format/Info                              : Advanced Video Codec
    Format profile                           : High@L4
    Format settings                          : CABAC / 5 Ref Frames
    Format settings, CABAC                   : Yes
    Format settings, RefFrames               : 5 frames
    Codec ID                                 : V_MPEG4/ISO/AVC
    Duration                                 : 1 h 21 min
    Bit rate                                 : 4 431 kb/s
    Width                                    : 1 912 pixels
    Height                                   : 800 pixels
    Display aspect ratio                     : 2.40:1
    Frame rate mode                          : Constant
    Frame rate                               : 25.000 FPS
    Color space                              : YUV
    Chroma subsampling                       : 4:2:0
    Bit depth                                : 8 bits
    Scan type                                : Progressive
    Bits/(Pixel*Frame)                       : 0.116
    Stream size                              : 2.53 GiB (90%)
    Title                                    : profile.php?mode=viewprofile&u=22488948
    Language                                 : French
    Default                                  : Yes
    Forced                                   : No
    Color range                              : Limited
    Color primaries                          : BT.709
    Transfer characteristics                 : BT.709
    Matrix coefficients                      : BT.709

    Audio
    ID                                       : 2
    Format                                   : AC-3
    Format/Info                              : Audio Coding 3
    Codec ID                                 : A_AC3
    Duration                                 : 1 h 21 min
    Bit rate mode                            : Constant
    Bit rate                                 : 384 kb/s
    Channel(s)                               : 6 channels
    Channel positions                        : Front: L C R, Side: L R, LFE
    Sampling rate                            : 48.0 kHz
    Frame rate                               : 31.250 FPS (1536 SPF)
    Bit depth                                : 16 bits
    Compression mode                         : Lossy
    Stream size                              : 224 MiB (8%)
    Language                                 : French
    Service kind                             : Complete Main
    Default                                  : Yes
    Forced                                   : No

    Text #1
    ID                                       : 3
    Format                                   : UTF-8
    Codec ID                                 : S_TEXT/UTF8
    Codec ID/Info                            : UTF-8 Plain Text
    Language                                 : Russian
    Default                                  : Yes
    Forced                                   : No
    Text #2
    ID                                       : 4
    Format                                   : UTF-8
    Codec ID                                 : S_TEXT/UTF8
    Codec ID/Info                            : UTF-8 Plain Text
    Language                                 : German
    Default                                  : No
    Forced                                   : No

    Text #3
    ID                                       : 5
    Format                                   : UTF-8
    Codec ID                                 : S_TEXT/UTF8
    Codec ID/Info                            : UTF-8 Plain Text
    Language                                 : French
    Default                                  : No
    Forced                                   : No

    Text #4
    ID                                       : 6
    Format                                   : UTF-8
    Codec ID                                 : S_TEXT/UTF8
    Codec ID/Info                            : UTF-8 Plain Text
    Language                                 : English
    Default                                  : No
    Forced                                   : No

    Menu
    00:00:00.000                             : en:Chapitre 01
    00:08:00.000                             : en:Chapitre 02
    00:16:00.000                             : en:Chapitre 03
    00:24:00.000                             : en:Chapitre 04
    00:32:00.000                             : en:Chapitre 05
    00:40:00.000                             : en:Chapitre 06
    00:48:00.000                             : en:Chapitre 07
    00:56:00.000                             : en:Chapitre 08
    01:04:00.000                             : en:Chapitre 09
    01:12:00.000                             : en:Chapitre 10Свернуть
    Похожие раздачи Искать похожие
    Инструкция по скачиванию
     1  Качаем uTorrent версии 2.0 и выше
     2  После установки, жмем выше под постером на ссылку Скачать [MediaGet] или Скачать .torrent
     3  Открываем скачанный файл через соответствующий клиент: MediaGet или uTorrent
     4  Ждем пока подключатся участники
     5  Качаем
    Комментарии о  Краш-тест Аглаи / Crash Test Aglaé | WEB-DL 1080p 
    Ближайшее в кино
    Вверх