• Игры для PS4
  • Игры для PS3
  • Игры для XBOX360
  • Игры для PC
  • Игры для PS2
  • Игры для PSP
  • Для телефонов
  • Музыка
  • Книги / Журналы
  • Обои
  • Опрос
    Удобен ли сайт в использовании?
      0
    • Очень удобен, все понятно1,1,false,300,full
    • Удобен1,2,false,300,full
    • Средне1,3,false,300,full
    • Неудобен, трудно ориентироваться1,4,false,300,full
    • Совсем неудобен1,5,false,300,full
    Статистика
    Всего онлайн -
    Гостей -
    Пользователей -
    Короли трекера
    
    Благодарности () Закрыть
    Быстрее загружает сайты Экономит интернет—трафик Меняет оформление страницы ВК Блокирует всю рекламу на сайтах Загружает торренты как µTorrent клиент Объеденяет все твои чаты из соц. сетей в один Проигрывает твою музыку не заходя во ВКонтакте
    Новый интернет-браузер
    Orbitum
    Скачать
    и многое другое... Подробности на сайте производителя
    Информация о фильме

    Название: Стань легендой! Бигфут Младший
    Оригинальное название: The Son of Bigfoot
    Год выпуска: 2017
    Жанр:  Мультфильм, комедия, семейный, полнометражный
    Выпущено: Франция, Бельгия, Belga Productions, Illuminata Pictures, nWave Pictures, Studio Canal, Waterman Entertainment
    Режиссер: Жереми Дегрусон, Бен Стассен
    В ролях: Синда Адамс, Боб Барлен, Кэллан Брункер, Джои Камен, Дэвид Эпштейн, Кристофер Л. Парсон, Джо Томас

    О фильме: Обычный подросток по имени Адам отправляется на поиски своего давно пропавшего отца и попадает в приключение мифических масштабов. Его мир переворачивается вверх дном, когда оказывается, что в нем течет кровь последних легендарных хранителей леса — бигфутов. Теперь ему открыты такие способности как суперскорость, живительное прикосновение и возможность понимать язык животных.



    Качество: BDRip (1080p)
    Видео: MPEG-4 AVC, 7057 Kбит/с, 1920x804, 24 кадр/с
    Аудио: Русский (AC3, 6 ch, 640 Кбит/с), (DTS, 6 ch, 1509 Кбит/с), английский (DTS, 6 ch, 1509 Кбит/с)
    Размер: 6.83 ГБ
    Продолжительность: 01:31:15
    Перевод: Дублированный

    Сохранены оригинальные чаптеры как на Blu-Ray.
    Озвучивание - (Лицензия)

    x264

    x264 [info]: frame I:1275  Avg QP:14.59  size:225586
    x264 [info]: frame P:41143 Avg QP:17.85  size: 65455
    x264 [info]: frame B:88989 Avg QP:18.82  size: 20768
    x264 [info]: consecutive B-frames:  7.2%  9.3% 11.6% 49.4% 15.6%  4.7%  1.0%  0.2%  0.6%  0.2%  0.2%
    x264 [info]: mb I  I16..4:  8.3% 60.3% 31.5%
    x264 [info]: mb P  I16..4:  2.3% 18.3%  4.5%  P16..4: 26.4% 24.0%  9.6%  1.6%  0.2%    skip:13.0%
    x264 [info]: mb B  I16..4:  0.7%  3.3%  0.8%  B16..8: 26.3% 15.3%  2.6%  direct: 5.3%  skip:45.6%  L0:36.1% L1:47.5% BI:16.4%
    x264 [info]: 8x8 transform intra:71.0% inter:51.2%
    x264 [info]: direct mvs  spatial:96.7% temporal:3.3%
    x264 [info]: coded y,uvDC,uvAC intra: 79.2% 74.6% 48.9% inter: 23.0% 20.2% 9.4%
    x264 [info]: i16 v,h,dc,p: 17% 24% 10% 49%
    x264 [info]: i8 v,h,dc,ddl,ddr,vr,hd,vl,hu: 14% 15% 12%  7%  9%  9% 10% 10% 13%
    x264 [info]: i4 v,h,dc,ddl,ddr,vr,hd,vl,hu: 33% 16% 17%  4%  6%  6%  6%  5%  5%
    x264 [info]: i8c dc,h,v,p: 28% 36% 21% 15%
    x264 [info]: Weighted P-Frames: Y:2.7% UV:1.7%
    x264 [info]: ref P L0: 61.2% 12.3% 16.0%  5.0%  4.8%  0.6%  0.0%
    x264 [info]: ref B L0: 83.9% 11.9%  3.2%  1.0%
    x264 [info]: ref B L1: 94.9%  5.1%
    x264 [info]: kb/s:7055.33Свернуть


    Инфо-файл

    Общее
    Уникальный идентификатор                 : 233462218056021541409786188475521220133 (0xAFA3300ABAB06AA1BC0CC25625D6BE25)
    Полное имя                               : D:ЗагрузкиThe.Son.Of.Bigfoot.2017.x264.BDRip.(1080p).OlLanDGroup.mkv
    Формат                                   : Matroska
    Версия формата                           : Version 4 / Version 2
    Размер файла                             : 6,83 Гбайт
    Продолжительность                        : 1 ч. 31 м.
    Общий поток                              : 10,7 Мбит/сек
    Название фильма                          : Стань легендой! Бигфут Младший.2017.Rip by: ollan
    Дата кодирования                         : UTC 2018-01-21 22:37:02
    Программа кодирования                    : mkvmerge v6.5.0 ("Isn"t she lovely") built on Oct 20 2013 12:50:05
    Библиотека кодирования                   : libebml v1.3.0 + libmatroska v1.4.1
    Attachements                             : Cover - The.Son.Of.Bigfoot.png

    Видео
    Идентификатор                            : 1
    Формат                                   : AVC
    Формат/Информация                        : Advanced Video Codec
    Профиль формата                          : High@L4.1
    Параметр CABAC формата                   : Да
    Параметр ReFrames формата                : 5 кадров
    Идентификатор кодека                     : V_MPEG4/ISO/AVC
    Продолжительность                        : 1 ч. 31 м.
    Битрейт                                  : 7057 Кбит/сек
    Ширина                                   : 1920 пикселей
    Высота                                   : 804 пикселя
    Соотношение сторон                       : 2,40:1
    Режим частоты кадров                     : Постоянный
    Частота кадров                           : 24,000 кадра/сек
    Цветовое пространство                    : YUV
    Субдискретизация насыщенности            : 4:2:0
    Битовая глубина                          : 8 бит
    Тип развёртки                            : Прогрессивная
    Бит/(Пиксели*Кадры)                      : 0.190
    Размер потока                            : 4,36 Гбайт (64%)
    Библиотека кодирования                   : x264 core 146 r2538 121396c
    Настройки программы                      : cabac=1 / ref=5 / deblock=1:-3:-3 / analyse=0x3:0x133 / me=umh / subme=11 / psy=1 / psy_rd=1.00:0.05 / mixed_ref=1 / me_range=64 / chroma_me=1 / trellis=2 / 8x8dct=1 / cqm=0 / deadzone=21,11 / fast_pskip=0 / chroma_qp_offset=-3 / threads=12 / lookahead_threads=3 / sliced_threads=0 / nr=0 / decimate=0 / interlaced=0 / bluray_compat=0 / constrained_intra=0 / bframes=10 / b_pyramid=2 / b_adapt=2 / b_bias=0 / direct=3 / weightb=1 / open_gop=0 / weightp=2 / keyint=240 / keyint_min=23 / scenecut=40 / intra_refresh=0 / rc_lookahead=40 / rc=2pass / mbtree=0 / bitrate=7057 / ratetol=1.0 / qcomp=0.60 / qpmin=0 / qpmax=69 / qpstep=4 / cplxblur=20.0 / qblur=0.5 / vbv_maxrate=50000 / vbv_bufsize=62500 / nal_hrd=none / filler=0 / ip_ratio=1.40 / pb_ratio=1.30 / aq=1:1.00
    Язык                                     : English
    Default                                  : Да
    Forced                                   : Нет

    Аудио #1
    Идентификатор                            : 2
    Формат                                   : AC-3
    Формат/Информация                        : Audio Coding 3
    Расширение режима                        : CM (complete main)
    Параметр Endianness формата              : Big
    Идентификатор кодека                     : A_AC3
    Продолжительность                        : 1 ч. 31 м.
    Вид битрейта                             : Постоянный
    Битрейт                                  : 640 Кбит/сек
    Каналы                                   : 6 каналов
    Расположение каналов                     : Front: L C R, Side: L R, LFE
    Частота                                  : 48,0 КГц
    Частота кадров                           : 31,250 кадров/сек (1536 spf)
    Метод сжатия                             : С потерями
    Размер потока                            : 418 Мбайт (6%)
    Заголовок                                : Дублированный (Лицензия)
    Язык                                     : Russian
    Default                                  : Да
    Forced                                   : Нет

    Аудио #2
    Идентификатор                            : 3
    Формат                                   : DTS
    Формат/Информация                        : Digital Theater Systems
    Режим                                    : 16
    Параметр Endianness формата              : Big
    Идентификатор кодека                     : A_DTS
    Продолжительность                        : 1 ч. 31 м.
    Вид битрейта                             : Постоянный
    Битрейт                                  : 1509 Кбит/сек
    Каналы                                   : 6 каналов
    Расположение каналов                     : Front: L C R, Side: L R, LFE
    Частота                                  : 48,0 КГц
    Частота кадров                           : 93,750 кадра/сек (512 spf)
    Битовая глубина                          : 24 бит
    Метод сжатия                             : С потерями
    Размер потока                            : 985 Мбайт (14%)
    Заголовок                                : Дублированный (Лицензия)
    Язык                                     : Russian
    Default                                  : Нет
    Forced                                   : Нет

    Аудио #3
    Идентификатор                            : 4
    Формат                                   : DTS
    Формат/Информация                        : Digital Theater Systems
    Режим                                    : 16
    Параметр Endianness формата              : Big
    Идентификатор кодека                     : A_DTS
    Продолжительность                        : 1 ч. 31 м.
    Вид битрейта                             : Постоянный
    Битрейт                                  : 1509 Кбит/сек
    Каналы                                   : 6 каналов
    Расположение каналов                     : Front: L C R, Side: L R, LFE
    Частота                                  : 48,0 КГц
    Частота кадров                           : 93,750 кадра/сек (512 spf)
    Битовая глубина                          : 24 бит
    Метод сжатия                             : С потерями
    Размер потока                            : 985 Мбайт (14%)
    Язык                                     : English
    Default                                  : Нет
    Forced                                   : Нет

    Меню
    00:00:00.000                             : en:Chapter 01
    00:00:25.708                             : en:Chapter 02
    00:09:52.250                             : en:Chapter 03
    00:20:05.625                             : en:Chapter 04
    00:31:35.750                             : en:Chapter 05
    00:42:31.458                             : en:Chapter 06
    00:55:00.166                             : en:Chapter 07
    01:03:24.041                             : en:Chapter 08
    01:16:09.833                             : en:Chapter 09

    Свернуть


    Инструкция по скачиванию
     1  Качаем uTorrent версии 2.0 и выше
     2  После установки, жмем выше под постером на ссылку Скачать [MediaGet] или Скачать .torrent
     3  Открываем скачанный файл через соответствующий клиент: MediaGet или uTorrent
     4  Ждем пока подключатся участники
     5  Качаем
    Комментарии о  Стань легендой! Бигфут Младший / The Son of Bigfoot | BDRip 1080p 
    Ближайшее в кино
    Вверх