• Игры для PS4
  • Игры для PS3
  • Игры для XBOX360
  • Игры для PC
  • Игры для PS2
  • Игры для PSP
  • Для телефонов
  • Музыка
  • Книги / Журналы
  • Обои
  • Опрос
    Откуда Вы о нас узнали?
      0
    • От знакомых2,1,false,300,full
    • Из социальных сетей2,2,false,300,full
    • Из поисковых систем2,3,false,300,full
    • Другое2,4,false,300,full
    Статистика
    Всего онлайн -
    Гостей -
    Пользователей -
    Короли трекера
    
    Благодарности () Закрыть
    Быстрее загружает сайты Экономит интернет—трафик Меняет оформление страницы ВК Блокирует всю рекламу на сайтах Загружает торренты как µTorrent клиент Объеденяет все твои чаты из соц. сетей в один Проигрывает твою музыку не заходя во ВКонтакте
    Новый интернет-браузер
    Orbitum
    Скачать
    и многое другое... Подробности на сайте производителя
    Трасса 60 / Interstate 60

    Страна: США
    Жанр:  Фэнтези, комедия, приключения
    Год выпуска: 2002
    Продолжительность: 01:52:16
    Перевод: Профессиональный (двухголосый, закадровый)

    Режиссер: Боб Гэйл / Bob Gale
    В ролях: Джеймс Марсден, Пол Брогрен, Кристофер Ллойд, Уэйн Робсон, Гари Олдман, Майкл Дж. Фокс, Мэттью Эдисон, Мелисса Эд, Джон Буржуа, Роз Майклс, Эми Смарт

    Описание: В легендах и мифах есть персонажи, главная задача которых — исполнять желания. У арабов — это джинны, у ирландцев — лепреконы, у китайцев — драконы, у европейцев — феи и лесные духи. А в Америке есть некто О. Ж. Грант — довольно странный и забавный человек, который тоже может исполнить любое Ваше желание. Но будьте осторожны — он очень проказлив! Вот его-то и встречает однажды Нейл Оливер. Нейл вполне доволен своей жизнью: у него обеспеченные родители, симпатичная невеста и впереди блестящая карьера юриста. Но с недавних пор по ночам ему стала сниться загадочная девушка, которую он никак не может выбросить из головы. Чудаковатый Грант приглашает Нейла совершить поездку по таинственной автостраде 60, которой нет ни на одной карте США. И Нейл бросает все и пускается в самое невероятное и рискованное путешествие в своей жизни, решив, во что бы то ни стало разыскать незнакомку из своих снов.



    Кодек: х264
    Качество: WEB-DLRip 720p
    Видео: MPEG-4 AVC, 1280x720, 25 fps, 11,2 Мбит/сек
    Звук: AC3, 6 ch, 448 Кбит/с, AC3, 2 ch, 192 Кбит/с
    Субтитры: Русские, английские
    Навигация по главам: Есть

    Скриншоты
    [screen]http://img12.lostpic.net/2018/01/21/33e40d2f8fcd2b32cc5443b138b3896e.png[/screen][screen]http://img12.lostpic.net/2018/01/21/2c07d3b9684acab0bddb17ede7d09229.png[/screen][screen]http://img12.lostpic.net/2018/01/21/2c07d3b9684acab0bddb17ede7d09229.png[/screen][screen]http://img12.lostpic.net/2018/01/21/6e87167f296e683b7283516e940baf11.png[/screen][screen]http://img12.lostpic.net/2018/01/21/1b37a70a24a0ee604fc2bca11be33221.png[/screen][screen]http://img12.lostpic.net/2018/01/21/c3321d5d0895f7dd203d6f26718a44eb.png[/screen][screen]http://img12.lostpic.net/2018/01/21/b989aef594ff930e2dafefd61a2b0f96.png[/screen][screen]http://img12.lostpic.net/2018/01/21/3ca40bc25e04c5f72a44e57d27538bd2.png[/screen]  Свернуть


    Инфо файл

    x264 [info]: frame I:1111  Avg QP:19.11  size:162720
    x264 [info]: frame P:34005 Avg QP:20.42  size: 99908
    x264 [info]: frame B:133303 Avg QP:22.92  size: 41729
    x264 [info]: consecutive B-frames:  1.0%  1.3%  3.8% 19.7% 24.4% 44.4%  4.2%  0.9%  0.2%  0.1%

    Общее
    Уникальный идентификатор                 : 172974590475679497076579713780885475052 (0x8221B1C05DB5AC4FA49F350BA263CEEC)
    Полное имя                               : D:Трасса 60_2002-WEB-DLRip 720p_KORSAR.mkv
    Формат                                   : Matroska
    Версия формата                           : Version 2
    Размер файла                             : 9,45 Гбайт
    Продолжительность                        : 1 ч. 52 м.
    Общий поток                              : 12,1 Мбит/сек
    Название фильма                          : Трасса 60_2002-WEB-DLRip 720p_KORSAR
    Дата кодирования                         : UTC 2018-01-21 14:15:50
    Программа кодирования                    : mkvmerge v5.8.0 ("No Sleep / Pillow") built on Sep  2 2012 15:37:04
    Библиотека кодирования                   : libebml v1.2.3 + libmatroska v1.3.0

    Видео
    Идентификатор                            : 1
    Формат                                   : AVC
    Формат/Информация                        : Advanced Video Codec
    Профиль формата                          : High@L4.1
    Параметр CABAC формата                   : Да
    Параметр RefFrames формата               : 9 кадров
    Идентификатор кодека                     : V_MPEG4/ISO/AVC
    Продолжительность                        : 1 ч. 52 м.
    Битрейт                                  : 11,2 Мбит/сек
    Ширина                                   : 1280 пикселей
    Высота                                   : 720 пикселей
    Соотношение сторон                       : 16:9
    Режим частоты кадров                     : Постоянный
    Частота кадров                           : 25,000 кадров/сек
    Цветовое пространство                    : YUV
    Субдискретизация насыщенности            : 4:2:0
    Битовая глубина                          : 8 бит
    Тип развёртки                            : Прогрессивная
    Бит/(Пиксели*Кадры)                      : 0.485
    Размер потока                            : 8,76 Гбайт (93%)
    Библиотека кодирования                   : x264 core 148 r2744kMod b97ae06
    Настройки программы                      : cabac=1 / ref=9 / deblock=1:-2:-1 / analyse=0x3:0x113 / me=umh / subme=10 / psy=1 / fade_compensate=0.00 / psy_rd=0.95:0.05 / mixed_ref=1 / me_range=40 / chroma_me=1 / trellis=2 / 8x8dct=1 / cqm=0 / deadzone=21,11 / fast_pskip=1 / chroma_qp_offset=-3 / threads=12 / lookahead_threads=2 / sliced_threads=0 / nr=0 / decimate=1 / interlaced=0 / bluray_compat=0 / constrained_intra=0 / bframes=9 / b_pyramid=2 / b_adapt=2 / b_bias=0 / direct=1 / weightb=1 / open_gop=0 / weightp=2 / keyint=250 / keyint_min=25 / scenecut=40 / intra_refresh=0 / rc_lookahead=40 / rc=crf / mbtree=0 / crf=18.0000 / qcomp=0.63 / qpmin=0 / qpmax=39 / qpstep=4 / vbv_maxrate=50000 / vbv_bufsize=62500 / crf_max=0.0 / nal_hrd=none / filler=0 / ip_ratio=1.40 / pb_ratio=1.30 / aq=3:0.70
    Язык                                     : English
    Default                                  : Да
    Forced                                   : Нет
    Цветовой диапазон                        : Limited
    Основные цвета                           : BT.709
    Характеристики трансфера                 : BT.709
    Коэффициенты матрицы                     : BT.709

    Аудио #1
    Идентификатор                            : 2
    Формат                                   : AC-3
    Формат/Информация                        : Audio Coding 3
    Параметр Endianness формата              : Big
    Идентификатор кодека                     : A_AC3
    Продолжительность                        : 1 ч. 52 м.
    Вид битрейта                             : Постоянный
    Битрейт                                  : 448 Кбит/сек
    Каналы                                   : 6 каналов
    Расположение каналов                     : Front: L C R, Side: L R, LFE
    Частота                                  : 48,0 КГц
    Частота кадров                           : 31,250 кадров/сек (1536 SPF)
    Битовая глубина                          : 16 бит
    Метод сжатия                             : С потерями
    Размер потока                            : 360 Мбайт (4%)
    Заголовок                                : MVO
    Язык                                     : Russian
    Default                                  : Да
    Forced                                   : Нет

    Аудио #2
    Идентификатор                            : 3
    Формат                                   : AC-3
    Формат/Информация                        : Audio Coding 3
    Параметр Endianness формата              : Big
    Идентификатор кодека                     : A_AC3
    Продолжительность                        : 1 ч. 52 м.
    Вид битрейта                             : Постоянный
    Битрейт                                  : 192 Кбит/сек
    Каналы                                   : 2 канала
    Расположение каналов                     : Front: L R
    Частота                                  : 48,0 КГц
    Частота кадров                           : 31,250 кадров/сек (1536 SPF)
    Битовая глубина                          : 16 бит
    Метод сжатия                             : С потерями
    Размер потока                            : 154 Мбайт (2%)
    Язык                                     : English
    Default                                  : Нет
    Forced                                   : Нет

    Текст #1
    Идентификатор                            : 4
    Формат                                   : UTF-8
    Идентификатор кодека                     : S_TEXT/UTF8
    Идентификатор кодека/Информация          : UTF-8 Plain Text
    Язык                                     : Russian
    Default                                  : Да
    Forced                                   : Нет

    Текст #2
    Идентификатор                            : 5
    Формат                                   : UTF-8
    Идентификатор кодека                     : S_TEXT/UTF8
    Идентификатор кодека/Информация          : UTF-8 Plain Text
    Язык                                     : ang
    Default                                  : Нет
    Forced                                   : Нет

    Меню
    00:00:00.000                             : en:Chapter 1
    00:08:53.680                             : en:Chapter 2
    00:19:00.400                             : en:Chapter 3
    00:29:04.680                             : en:Chapter 4
    00:38:24.000                             : en:Chapter 5
    00:48:54.000                             : en:Chapter 6
    01:06:39.160                             : en:Chapter 7
    01:09:50.720                             : en:Chapter 8
    01:19:58.800                             : en:Chapter 9
    01:28:08.360                             : en:Chapter 10
    01:39:46.400                             : en:Chapter 11
    01:56:00.000                             : en:Chapter 12Свернуть


    [img]http://s018.radikal.ru/i516/1710/ce/3eb1e0641821.gif[/img]
    Похожие раздачи Искать похожие
    Инструкция по скачиванию
     1  Качаем uTorrent версии 2.0 и выше
     2  После установки, жмем выше под постером на ссылку Скачать [MediaGet] или Скачать .torrent
     3  Открываем скачанный файл через соответствующий клиент: MediaGet или uTorrent
     4  Ждем пока подключатся участники
     5  Качаем
    Комментарии о  Трасса 60 / Interstate 60 | WEB-DLRip 720p 
    Ближайшее в кино
    Вверх