• Игры для PS4
  • Игры для PS3
  • Игры для XBOX360
  • Игры для PC
  • Игры для PS2
  • Игры для PSP
  • Для телефонов
  • Музыка
  • Книги / Журналы
  • Обои
  • Опрос
    Удобен ли сайт в использовании?
      0
    • Очень удобен, все понятно1,1,false,300,full
    • Удобен1,2,false,300,full
    • Средне1,3,false,300,full
    • Неудобен, трудно ориентироваться1,4,false,300,full
    • Совсем неудобен1,5,false,300,full
    Статистика
    Всего онлайн -
    Гостей -
    Пользователей -
    Короли трекера
    
    Благодарности () Закрыть
    Быстрее загружает сайты Экономит интернет—трафик Меняет оформление страницы ВК Блокирует всю рекламу на сайтах Загружает торренты как µTorrent клиент Объеденяет все твои чаты из соц. сетей в один Проигрывает твою музыку не заходя во ВКонтакте
    Новый интернет-браузер
    Orbitum
    Скачать
    и многое другое... Подробности на сайте производителя
    Информация о фильме
    Название: Контора
    Оригинальное название: Head Office
    Год выпуска: 1985
    Жанр:  комедия
    Режиссер: Кен Финклмен
    В ролях: Джадж Райнхолд, Лори-Нэн Энглер, Эдди Альберт, Мерритт Бутрик, Рон Фрэзиер, Ричард Мейсер, Рик Морэнис, Дон Новелло, Майкл О’Донохью, Джейн Сеймур, Уоллес Шоун, Брюс Вагнер

    О фильме:
    Герой этой комедии о современных корпорациях начинающий менеджер в крупной компании, узнает, что чем выше взбираешься по служебной лестнице большого бизнеса, тем отвратительней становится твое окружение и ты сам.

    Джек является свидетелем всех прелестей: молитвы о благе фирмы за завтраком, более уместные для сумасшедшего дома, удары в спину во славу карьеры, продвижение по службе через спальню. Для тех, кто не выдерживает, растет вероятность оказаться трупом или, хуже того, безработным.



    MPAA: PG-13 - Детям до 13 лет просмотр не желателен

    Страна: США
    Студия: Guber-Peters Company, Home Box Office (HBO)
    Продолжительность: 01:31:20
    Перевод: Профессиональный (двухголосый, закадровый) R5 + Авторский (одноголосый, закадровый) С.Визгунов

    Файл
    Качество: WEB-DL 1080p
    Формат: Matroska
    Видео: 1920x1080 at 29.970 fps, MPEG-4 AVC, ~14000 kbps avg
    Аудио#1: Russian: 48 kHz, AC3, 2/0 (L,R) ch, ~192 kbps avg |Двухголосый закадровый, R5|
    Аудио#2: Russian: 48 kHz, AC3, 2/0 (L,R) ch, ~192 kbps avg |Авторский, С.Визгунов|
    Аудио#3: English: 48 kHz, EAC3, 2/0 (L,R) ch, ~224 kbps avg
    Субтитры: English (SDH)

    ***Исходник видео - Amazon.
    ***Релиз: spartanec163.



    MediaInfo
    Общее
    Уникальный идентификатор                 : 196685876109987855081238248990217377577 (0x93F852645B64AA808976CE93C0049729)
    Полное имя                               : Head.Office.1985.1080p.WEB-DL.2xRus.Eng.mkv
    Формат                                   : Matroska
    Версия формата                           : Version 4 / Version 2
    Размер файла                             : 9,30 Гбайт
    Продолжительность                        : 1 ч. 31 м.
    Режим общего битрейта                    : Переменный
    Общий поток                              : 14,6 Мбит/сек
    Название фильма                          : Head.Office.1985.1080p.WEB-DL.2xRus.Eng-spartanec163
    Дата кодирования                         : UTC 2018-01-22 16:12:59
    Программа кодирования                    : mkvmerge v8.3.0 ("Over the Horizon") 64bit
    Библиотека кодирования                   : libebml v1.3.1 + libmatroska v1.4.2

    Видео
    Идентификатор                            : 1
    Формат                                   : AVC
    Формат/Информация                        : Advanced Video Codec
    Профиль формата                          : High@L4.0
    Параметр CABAC формата                   : Да
    Параметр ReFrames формата                : 4 кадра
    Идентификатор кодека                     : V_MPEG4/ISO/AVC
    Продолжительность                        : 1 ч. 31 м.
    Вид битрейта                             : Переменный
    Битрейт                                  : 13,7 Мбит/сек
    Максимальный битрейт                     : 15,0 Мбит/сек
    Ширина                                   : 1920 пикселей
    Высота                                   : 1080 пикселей
    Соотношение сторон                       : 16:9
    Режим частоты кадров                     : Постоянный
    Частота кадров                           : 29,970 кадров/сек
    Цветовое пространство                    : YUV
    Субдискретизация насыщенности            : 4:2:0
    Битовая глубина                          : 8 бит
    Тип развёртки                            : Прогрессивная
    Бит/(Пиксели*Кадры)                      : 0.220
    Размер потока                            : 8,72 Гбайт (94%)
    Заголовок                                : WEB-DL 1080p (Amazon)
    Язык                                     : English
    Default                                  : Да
    Forced                                   : Нет
    Основные цвета                           : BT.709
    Характеристики трансфера                 : BT.709
    Коэффициенты матрицы                     : BT.709

    Аудио #1
    Идентификатор                            : 2
    Формат                                   : AC-3
    Формат/Информация                        : Audio Coding 3
    Расширение режима                        : CM (complete main)
    Параметр Endianness формата              : Big
    Идентификатор кодека                     : A_AC3
    Продолжительность                        : 1 ч. 31 м.
    Вид битрейта                             : Постоянный
    Битрейт                                  : 192 Кбит/сек
    Каналы                                   : 2 канала
    Расположение каналов                     : Front: L R
    Частота                                  : 48,0 КГц
    Битовая глубина                          : 16 бит
    Метод сжатия                             : С потерями
    Размер потока                            : 125 Мбайт (1%)
    Заголовок                                : AC3 2.0 192Kbps (Профессиональный, двухголосый - R5)
    Язык                                     : Russian
    Default                                  : Да
    Forced                                   : Нет

    Аудио #2
    Идентификатор                            : 3
    Формат                                   : AC-3
    Формат/Информация                        : Audio Coding 3
    Расширение режима                        : CM (complete main)
    Параметр Endianness формата              : Big
    Идентификатор кодека                     : A_AC3
    Продолжительность                        : 1 ч. 31 м.
    Вид битрейта                             : Постоянный
    Битрейт                                  : 192 Кбит/сек
    Каналы                                   : 2 канала
    Расположение каналов                     : Front: L R
    Частота                                  : 48,0 КГц
    Битовая глубина                          : 16 бит
    Метод сжатия                             : С потерями
    Размер потока                            : 125 Мбайт (1%)
    Заголовок                                : AC3 2.0 192Kbps (Авторский, одноголосый - С. Визгунов)
    Язык                                     : Russian
    Default                                  : Нет
    Forced                                   : Нет

    Аудио #3
    Идентификатор                            : 4
    Формат                                   : E-AC-3
    Формат/Информация                        : Audio Coding 3
    Параметр Endianness формата              : Big
    Идентификатор кодека                     : A_EAC3
    Продолжительность                        : 1 ч. 31 м.
    Вид битрейта                             : Постоянный
    Битрейт                                  : 224 Кбит/сек
    Каналы                                   : 2 канала
    Расположение каналов                     : Front: L R
    Частота                                  : 48,0 КГц
    Метод сжатия                             : С потерями
    Размер потока                            : 146 Мбайт (2%)
    Заголовок                                : E-AC3 2.0 224Kbps (Оригинал)
    Язык                                     : English
    Default                                  : Нет
    Forced                                   : Нет

    Текст
    Идентификатор                            : 5
    Формат                                   : UTF-8
    Идентификатор кодека                     : S_TEXT/UTF8
    Идентификатор кодека/Информация          : UTF-8 Plain Text
    Заголовок                                : SDH, Amazon
    Язык                                     : English
    Default                                  : Нет
    Forced                                   : НетСвернуть


    Скриншоты
    [screen]http://img12.lostpic.net/2018/01/23/0c5533ef45e96f1b6d9df3d0f3d6a255.png[/screen][screen]http://img12.lostpic.net/2018/01/23/f8dde05e89d0071e66b4b4a782588740.png[/screen][screen]http://img12.lostpic.net/2018/01/23/e997d1b39089de4cd0bc95f87285016f.png[/screen][screen]http://img12.lostpic.net/2018/01/23/99c2d1f0318fe133eb897dbf968f4e6a.png[/screen]Свернуть
    Похожие раздачи Искать похожие
    Инструкция по скачиванию
     1  Качаем uTorrent версии 2.0 и выше
     2  После установки, жмем выше под постером на ссылку Скачать [MediaGet] или Скачать .torrent
     3  Открываем скачанный файл через соответствующий клиент: MediaGet или uTorrent
     4  Ждем пока подключатся участники
     5  Качаем
    Комментарии о  Контора / Head Office | WEB-DL 1080p 
    Ближайшее в кино
    Вверх