• Игры для PS4
  • Игры для PS3
  • Игры для XBOX360
  • Игры для PC
  • Игры для PS2
  • Игры для PSP
  • Для телефонов
  • Музыка
  • Книги / Журналы
  • Обои
  • Опрос
    Удобен ли сайт в использовании?
      0
    • Очень удобен, все понятно1,1,false,300,full
    • Удобен1,2,false,300,full
    • Средне1,3,false,300,full
    • Неудобен, трудно ориентироваться1,4,false,300,full
    • Совсем неудобен1,5,false,300,full
    Статистика
    Всего онлайн -
    Гостей -
    Пользователей -
    Короли трекера
    
    Благодарности () Закрыть
    Быстрее загружает сайты Экономит интернет—трафик Меняет оформление страницы ВК Блокирует всю рекламу на сайтах Загружает торренты как µTorrent клиент Объеденяет все твои чаты из соц. сетей в один Проигрывает твою музыку не заходя во ВКонтакте
    Новый интернет-браузер
    Оrbitum
    Скачать
    и многое другое... Подробности на сайте производителя
    Информация о фильме
    Название: Субурбикон
    Оригинальное название: Suburbicon
    Год выхода: 2017
    Жанр: Триллер, драма, криминал, детектив
    Режиссер: Джордж Клуни
    В ролях: Мэтт Дэймон, Джулианна Мур, Оскар Айзек, Ноа Джуп, Гленн Флешлер, Меган Фергюсон, Джек Конли, Гэри Басараба, Майкл Коэн, Стив Монро

    О фильме:
    Добро пожаловать в солнечный Субурбикон! В прекрасный тихий городок в самом сердце Америки. Счастливые семьи. Недорогие миленькие дома. Ухоженные газоны. Воплощение американской мечты. Чудесную жизнь городка внезапно прерывает шокирующее, из ряда вон выходящее событие — образцовая семья переживает вторжение в их семейное гнёздышко. Это событие толкает на худшие поступки в их идиллической жизни — шантаж, месть и предательство.



    Страна: Великобритания, США
    Студия: Black Bear Pictures
    Продолжительность: 01:44:10
    Перевод: Дублированный | iTunes

    Файл
    Качество: WEB-DL 720p
    Видео: MPEG-4 AVC, 1280x536, 4088 Kbit/s, 24.000 fps
    Звук: 48 kHz, AC3, 5.1, 384 Kbps | Дублированный | iTunes | RUS |[img]http://lostpix.com/img/2016-04/26/ecarul7mj2gcrjkf30af8u4tk.gif[/img]

    [img]http://img12.lostpic.net/2018/01/22/d2b3a1b56d8734b1568df02f4eb541fe.png[/img][img]http://img12.lostpic.net/2018/01/22/b474f4b5ebbc0bee0da6bed94585b514.png[/img][img]http://img12.lostpic.net/2018/01/22/38d3a37146762a8b6e4be661dde4e356.png[/img][img]http://img12.lostpic.net/2018/01/22/4ef88060c1ec5935f967d147c19dac05.png[/img][img]http://img12.lostpic.net/2018/01/22/4b9a9d78fa9b0d5355ea4b64d619ac5d.png[/img]

    MI
    General
    Unique ID                   : 157154064986724311401739090685102322365 (0x763AC59F6EF4EF58041857DF7A56F2BD)
    Complete name               : G:VideoSSDSuburbicon.2017.WEB-DL.720p.ExKinoRay.mkv
    Format                      : Matroska
    Format version              : Version 4 / Version 2
    File size                   : 3.26 GiB
    Duration                    : 1 h 44 min
    Overall bit rate            : 4 474 kb/s
    Movie name                  : Suburbicon 2017 from ExKinoRay
    Encoded date                : UTC 2018-01-22 19:42:54
    Writing application         : mkvmerge v20.0.0 ("I Am The Sun") 64-bit
    Writing library             : libebml v1.3.5 + libmatroska v1.4.8

    Video
    ID                          : 1
    Format                      : AVC
    Format/Info                 : Advanced Video Codec
    Format profile              : Main@L3.1
    Format settings             : 2 Ref Frames
    Format settings, CABAC      : No
    Format settings, ReFrames   : 2 frames
    Codec ID                    : V_MPEG4/ISO/AVC
    Duration                    : 1 h 44 min
    Bit rate                    : 4 088 kb/s
    Width                       : 1 280 pixels
    Height                      : 536 pixels
    Display aspect ratio        : 2.40:1
    Frame rate mode             : Constant
    Frame rate                  : 24.000 FPS
    Color space                 : YUV
    Chroma subsampling          : 4:2:0
    Bit depth                   : 8 bits
    Scan type                   : Progressive
    Bits/(Pixel*Frame)          : 0.248
    Stream size                 : 2.97 GiB (91%)
    Language                    : English
    Default                     : Yes
    Forced                      : No
    Color range                 : Limited
    Color primaries             : BT.709
    Transfer characteristics    : BT.709
    Matrix coefficients         : BT.709

    Audio
    ID                          : 2
    Format                      : AC-3
    Format/Info                 : Audio Coding 3
    Codec ID                    : A_AC3
    Duration                    : 1 h 44 min
    Bit rate mode               : Constant
    Bit rate                    : 384 kb/s
    Channel(s)                  : 6 channels
    Channel positions           : Front: L C R, Side: L R, LFE
    Sampling rate               : 48.0 kHz
    Frame rate                  : 31.250 FPS (1536 SPF)
    Bit depth                   : 16 bits
    Compression mode            : Lossy
    Delay relative to video     : -42 ms
    Stream size                 : 286 MiB (9%)
    Title                       : iTunes
    Language                    : Russian
    Service kind                : Complete Main
    Default                     : Yes
    Forced                      : No

    Menu
    00:00:00.000                : en:Глава 1
    00:06:24.208                : en:Глава 2
    00:11:28.124                : en:Глава 3
    00:18:03.707                : en:Глава 4
    00:23:21.997                : en:Глава 5
    00:29:11.080                : en:Глава 6
    00:34:57.705                : en:Глава 7
    00:41:44.038                : en:Глава 8
    00:48:28.579                : en:Глава 9
    00:56:09.995                : en:Глава 10
    01:00:47.286                : en:Глава 11
    01:07:32.744                : en:Глава 12
    01:13:46.660                : en:Глава 13
    01:18:53.035                : en:Глава 14
    01:24:56.076                : en:Глава 15
    01:33:19.201                : en:Глава 16Свернуть


    Подпишись на меня, кликни по картинке > : [img]http://i069.radikal.ru/1712/fb/cc798e05d06e.gif[/img]

    [img]http://lostpix.com/img/2017-03/22/pa3kns75lpl0e564ik1il8ow9.gif[/img]
    Похожие раздачи Искать похожие
    Инструкция по скачиванию
     1  Качаем uTorrent версии 2.0 и выше
     2  После установки, жмем выше под постером на ссылку Скачать [MediaGet] или Скачать .torrent
     3  Открываем скачанный файл через соответствующий клиент: MediaGet или uTorrent
     4  Ждем пока подключатся участники
     5  Качаем
    Комментарии о  Субурбикон / Suburbicon | WEB-DL 720p 
    Ближайшее в кино
    Вверх