• Игры для PS3
  • Игры для XBOX360
  • Игры для PC
  • Игры для PS2
  • Игры для PSP
  • Для телефонов
  • Музыка
  • Книги/Журналы
  • Обои
  •  
    Опрос
    Откуда Вы о нас узнали?
      0
    • От знакомых2,1,false,300,full
    • Из социальных сетей2,2,false,300,full
    • Из поисковых систем2,3,false,300,full
    • Другое2,4,false,300,full
    Статистика
    Загрузка...
    Фантазм / Phantasm | BDRemux 1080p
    Статус  Проверено
    В закладки
    Модератор: Max

    Фантазм / Phantasm | BDRemux 1080p [Фильмы 1979] скачать торрентом/torrent бесплатно

    Год выхода
    Язык
    Закачал
    Max | 11 февраля в 11ч 27м 30с
    Раздел
    Отзывов
    0
    Раздают: 0 Качают: 0 Скачали: 2 Размер: 15.12 GB
    Инфо о раздаче | Благодарности |
    0/5
    0
    0 5 0
    Поддержи нас — расскажи друзьям!
    Orbitum
    Новый интернет-браузер Быстрее загружает сайты Экономит интернет—трафик Меняет оформление страницы ВК Блокирует всю рекламу на сайтах Загружает торренты как

    µTorrent

    клиент
    Объеденяет все твои чаты из соц. сетей в один Проигрывает твою музыку не заходя во ВКонтакте
    Скачать и многое другое... Подробности на сайте производителя
    Информация о фильме
    Название: Фантазм
    Оригинальное название: Phantasm
    Год выхода: 1979
    Жанр: ужасы, фантастика, фэнтези
    Режиссер: Дон Коскарелли
    В ролях: А. Майкл Болдуин, Билл Торнбери, Рэджи Бэннистер, Кэти Лестер, Терри Калбус, Кеннет В. Джонс, Сьюзэн Харпер, Линн Истмэн, Дэвид Арнцен, Ральф Ричмонд, ...

    О фильме:
    Подросток Майк становится свидетелем таинственных событий на городском кладбище Монинсайд. Мрачный гробовщик — двухметровый Верзила — прямо из могил крадет свежие трупы и творит с ними в глубине похоронного бюро нечто ужасное. Родители Майка погибли, старший брат Джоди не верит ему — трудно принять всерьез рассказы мальчишки о злобных зомби-карликах и летающих сферах-убийцах. Но вскоре Джоди и его другу мороженщику Рэджи придется убедиться в том, как опасен Верзила и его твари…


    Страна: США
    Студия: New Breed Productions Inc.
    Продолжительность: 01:29:10
    Перевод: профессиональный (многоголосый закадровый), авторский (одноголосый закадровый).

    Файл
    Кодек: x264
    Качество: BDRemux 1080p.
    Видео: MPEG-4 AVC, 20 Мбит/с, 1920x1080, 23.976 fps
    Звук:
    Аудио 1: AC-3, 6 ch, 448 Kbps - Русский (MVO, D2Lab)
    Аудио 2: AC-3, 2 ch, 192 Kbps - Русский (AVO, А. Гаврилов)
    Аудио 3: AC-3, 2 ch, 192 Kbps - Русский (AVO, В. Горчаков)
    Аудио 4: AC-3, 2 ch, 192 Kbps - Русский (AVO, В. Дохалов)
    Аудио 5: AC-3, 2 ch, 192 Kbps - Русский (AVO, Ю. Живов)
    Аудио 6: AC-3, 2 ch, 192 Kbps - Русский (AVO, М. Ошурков)
    Аудио 7: AC-3, 2 ch, 192 Kbps - Русский (AVO, Ю. Сербин)
    Аудио 8: AC-3, 2 ch, 192 Kbps - Русский (Комментарии создателей фильма, D2Lab)
    Аудио 9: DTS-HD MA, 6 ch, ~2337 kbps / 1509 kbps - Английский (Оригинал)
    Аудио 10: AAC, 2 ch, 151 Kbps - Английский (Комментарии создателей фильма)
    Субтитры: Русские, английские

    Скриншоты
    [img]http://img12.lostpic.net/2018/02/10/7f9cf2b8d57bef2b570f067805792979.png[/img][img]http://img12.lostpic.net/2018/02/10/e53a35c8d169d41a5ac82759caedd966.png[/img][img]http://img12.lostpic.net/2018/02/10/ac8827b8a73ad93db710ad32b18e9eea.png[/img][img]http://img12.lostpic.net/2018/02/10/b68bb34cf1b7d726547f22b9b0d80050.png[/img][img]http://img12.lostpic.net/2018/02/10/aaa3a59fe064ada6c990d462abceb4ef.png[/img][img]http://img12.lostpic.net/2018/02/10/ec55a16569decfbaf70dcc27c6d62327.png[/img][img]http://img12.lostpic.net/2018/02/10/08e5a7fadb9cbbf2ea745929b7228d51.png[/img][img]http://img12.lostpic.net/2018/02/10/69eb6c87d0d74673249665ac55c1ebd5.png[/img]


    MI
    General
    Unique ID                        : 190768341711374620715670368840796572198 (0x8F84A56BADDC2898BC82651D2DF78A26)
    Complete name                    : D:DownloadPhantasm.1979.BDRemux.1080p.nnm_video.mkv
    Format                           : Matroska
    Format version                   : Version 4 / Version 2
    File size                        : 15.1 GiB
    Duration                         : 1h 29mn
    Overall bit rate mode            : Variable
    Overall bit rate                 : 24.3 Mbps
    Encoded date                     : UTC 2017-04-29 17:09:47
    Writing application              : mkvmerge v11.0.0 ("Alive") 64bit
    Writing library                  : libebml v1.3.4 + libmatroska v1.4.5
    DURATION                         : 01:29:10.144000000
    NUMBER_OF_FRAMES                 : 250788
    NUMBER_OF_BYTES                  : 100789490
    _STATISTICS_WRITING_APP          : mkvmerge v11.0.0 ("Alive") 64bit
    _STATISTICS_WRITING_DATE_UTC     : 2017-04-29 17:09:47
    _STATISTICS_TAGS                 : BPS DURATION NUMBER_OF_FRAMES NUMBER_OF_BYTES

    Video
    ID                               : 1
    Format                           : AVC
    Format/Info                      : Advanced Video Codec
    Format profile                   : High@L4.1
    Format settings, CABAC           : Yes
    Format settings, ReFrames        : 4 frames
    Codec ID                         : V_MPEG4/ISO/AVC
    Duration                         : 1h 29mn
    Bit rate mode                    : Variable
    Maximum bit rate                 : 25.0 Mbps
    Width                            : 1 920 pixels
    Height                           : 1 080 pixels
    Display aspect ratio             : 16:9
    Frame rate                       : 24.000 fps
    Standard                         : NTSC
    Color space                      : YUV
    Chroma subsampling               : 4:2:0
    Bit depth                        : 8 bits
    Scan type                        : Progressive
    Language                         : English
    Default                          : Yes
    Forced                           : No
    Color primaries                  : BT.709-5, BT.1361, IEC 61966-2-4, SMPTE RP177
    Transfer characteristics         : BT.709-5, BT.1361
    Matrix coefficients              : BT.709-5, BT.1361, IEC 61966-2-4 709, SMPTE RP177

    Audio #1
    ID                               : 2
    Format                           : AC-3
    Format/Info                      : Audio Coding 3
    Mode extension                   : CM (complete main)
    Codec ID                         : A_AC3
    Duration                         : 1h 29mn
    Bit rate mode                    : Constant
    Bit rate                         : 448 Kbps
    Channel(s)                       : 6 channels
    Channel positions                : Front: L C R, Side: L R, LFE
    Sampling rate                    : 48.0 KHz
    Bit depth                        : 16 bits
    Compression mode                 : Lossy
    Stream size                      : 286 MiB (2%)
    Title                            : MVO (D2Lab)
    Language                         : Russian
    Default                          : Yes
    Forced                           : No

    Audio #2
    ID                               : 3
    Format                           : AC-3
    Format/Info                      : Audio Coding 3
    Mode extension                   : CM (complete main)
    Codec ID                         : A_AC3
    Duration                         : 1h 29mn
    Bit rate mode                    : Constant
    Bit rate                         : 192 Kbps
    Channel(s)                       : 2 channels
    Channel positions                : Front: L R
    Sampling rate                    : 48.0 KHz
    Bit depth                        : 16 bits
    Compression mode                 : Lossy
    Stream size                      : 122 MiB (1%)
    Title                            : AVO (А. Гаврилов)
    Language                         : Russian
    Default                          : No
    Forced                           : No

    Audio #3
    ID                               : 4
    Format                           : AC-3
    Format/Info                      : Audio Coding 3
    Mode extension                   : CM (complete main)
    Codec ID                         : A_AC3
    Duration                         : 1h 29mn
    Bit rate mode                    : Constant
    Bit rate                         : 192 Kbps
    Channel(s)                       : 2 channels
    Channel positions                : Front: L R
    Sampling rate                    : 48.0 KHz
    Bit depth                        : 16 bits
    Compression mode                 : Lossy
    Stream size                      : 122 MiB (1%)
    Title                            : AVO (В. Горчаков)
    Language                         : Russian
    Default                          : No
    Forced                           : No

    Audio #4
    ID                               : 5
    Format                           : AC-3
    Format/Info                      : Audio Coding 3
    Mode extension                   : CM (complete main)
    Codec ID                         : A_AC3
    Duration                         : 1h 29mn
    Bit rate mode                    : Constant
    Bit rate                         : 192 Kbps
    Channel(s)                       : 2 channels
    Channel positions                : Front: L R
    Sampling rate                    : 48.0 KHz
    Bit depth                        : 16 bits
    Compression mode                 : Lossy
    Stream size                      : 122 MiB (1%)
    Title                            : AVO (В. Дохалов)
    Language                         : Russian
    Default                          : No
    Forced                           : No

    Audio #5
    ID                               : 6
    Format                           : AC-3
    Format/Info                      : Audio Coding 3
    Mode extension                   : CM (complete main)
    Codec ID                         : A_AC3
    Duration                         : 1h 29mn
    Bit rate mode                    : Constant
    Bit rate                         : 192 Kbps
    Channel(s)                       : 2 channels
    Channel positions                : Front: L R
    Sampling rate                    : 48.0 KHz
    Bit depth                        : 16 bits
    Compression mode                 : Lossy
    Stream size                      : 122 MiB (1%)
    Title                            : AVO (Ю. Живов)
    Language                         : Russian
    Default                          : No
    Forced                           : No

    Audio #6
    ID                               : 7
    Format                           : AC-3
    Format/Info                      : Audio Coding 3
    Mode extension                   : CM (complete main)
    Codec ID                         : A_AC3
    Duration                         : 1h 29mn
    Bit rate mode                    : Constant
    Bit rate                         : 192 Kbps
    Channel(s)                       : 2 channels
    Channel positions                : Front: L R
    Sampling rate                    : 48.0 KHz
    Bit depth                        : 16 bits
    Compression mode                 : Lossy
    Stream size                      : 122 MiB (1%)
    Title                            : AVO (М. Ошурков)
    Language                         : Russian
    Default                          : No
    Forced                           : No

    Audio #7
    ID                               : 8
    Format                           : AC-3
    Format/Info                      : Audio Coding 3
    Mode extension                   : CM (complete main)
    Codec ID                         : A_AC3
    Duration                         : 1h 29mn
    Bit rate mode                    : Constant
    Bit rate                         : 192 Kbps
    Channel(s)                       : 2 channels
    Channel positions                : Front: L R
    Sampling rate                    : 48.0 KHz
    Bit depth                        : 16 bits
    Compression mode                 : Lossy
    Stream size                      : 122 MiB (1%)
    Title                            : AVO (Ю. Сербин)
    Language                         : Russian
    Default                          : No
    Forced                           : No

    Audio #8
    ID                               : 9
    Format                           : AC-3
    Format/Info                      : Audio Coding 3
    Mode extension                   : CM (complete main)
    Codec ID                         : A_AC3
    Duration                         : 1h 29mn
    Bit rate mode                    : Constant
    Bit rate                         : 192 Kbps
    Channel(s)                       : 2 channels
    Channel positions                : Front: L R
    Sampling rate                    : 48.0 KHz
    Bit depth                        : 16 bits
    Compression mode                 : Lossy
    Stream size                      : 122 MiB (1%)
    Title                            : Комментарии создателей (D2Lab)
    Language                         : Russian
    Default                          : No
    Forced                           : No

    Audio #9
    ID                               : 10
    Format                           : DTS
    Format/Info                      : Digital Theater Systems
    Format profile                   : MA / Core
    Codec ID                         : A_DTS
    Duration                         : 1h 29mn
    Bit rate mode                    : Variable
    Bit rate                         : 2 230 Kbps / 1 510 Kbps
    Channel(s)                       : 6 channels
    Channel positions                : Front: L C R, Side: L R, LFE
    Sampling rate                    : 48.0 KHz
    Bit depth                        : 16 bits
    Compression mode                 : Lossless / Lossy
    Language                         : English
    Default                          : No
    Forced                           : No

    Audio #10
    ID                               : 11
    Format                           : AAC
    Format/Info                      : Advanced Audio Codec
    Format profile                   : LC
    Codec ID                         : A_AAC
    Duration                         : 1h 29mn
    Channel(s)                       : 2 channels
    Channel positions                : Front: L R
    Sampling rate                    : 48.0 KHz
    Compression mode                 : Lossy
    Delay relative to video          : 9ms
    Title                            : Commentary
    Language                         : English
    Default                          : No
    Forced                           : No

    Text #1
    ID                               : 12
    Format                           : UTF-8
    Codec ID                         : S_TEXT/UTF8
    Codec ID/Info                    : UTF-8 Plain Text
    Language                         : Russian
    Default                          : Yes
    Forced                           : No

    Text #2
    ID                               : 13
    Format                           : UTF-8
    Codec ID                         : S_TEXT/UTF8
    Codec ID/Info                    : UTF-8 Plain Text
    Language                         : English
    Default                          : No
    Forced                           : No

    Menu
    00:00:00.000                     : en:00:00:00.000
    00:08:47.792                     : en:00:08:47.792
    00:15:49.708                     : en:00:15:49.708
    00:25:43.000                     : en:00:25:43.000
    00:33:47.500                     : en:00:33:47.500
    00:40:32.458                     : en:00:40:32.458
    00:52:43.125                     : en:00:52:43.125
    01:06:53.375                     : en:01:06:53.375
    01:13:47.750                     : en:01:13:47.750
    01:26:40.875                     : en:01:26:40.875
    Еще похожие »

    Как скачать?
    1. Качаем UTorrent версии 2.0 и выше отсюда
    2. После установки, жмем на ссылку Скачать торрент.
    3. Открываем его через utorrent.
    4. Ждем пока подключатся участники.
    5. Качаем.


    Комментарии о Фантазм / Phantasm | BDRemux 1080p
    Добавлять комментарии могут только зарегистрированные пользователи

    Зарегистрироваться или Войти


    Ближайшее в кино
    • Невидимый гость дата выхода 31 мая 2018Невидимый гость
      Дата выхода: 31 мая 2018
    • 762500|Красный воробей|31 мая 2018|200|300Красный воробей
      Дата выхода: 31 мая 2018
    • 843121|Как разговаривать с девушками на вечеринках|31 мая 2018|200|300Как разговаривать с девушками на вечеринках
      Дата выхода: 31 мая 2018
    • 965611|Истории призраков|31 мая 2018|200|300Истории призраков
      Дата выхода: 31 мая 2018
    • 1048530|Моя жизнь|31 мая 2018|200|300Моя жизнь
      Дата выхода: 31 мая 2018
    • 1030828|Псы под прикрытием|31 мая 2018|200|300Псы под прикрытием
      Дата выхода: 31 мая 2018
    • 927822|Два хвоста|31 мая 2018|200|300Два хвоста
      Дата выхода: 31 мая 2018
    • 1061480|От семьи не убежишь|31 мая 2018|200|300От семьи не убежишь
      Дата выхода: 31 мая 2018
    • 1057083|Сказки о маме|31 мая 2018|200|300Сказки о маме
      Дата выхода: 31 мая 2018
    • 924311|Мир Юрского периода 2|7 июня 2018|200|300Мир Юрского периода 2
      Дата выхода: 7 июня 2018
    • 1074222|Красотка на всю голову|7 июня 2018|200|300Красотка на всю голову
      Дата выхода: 7 июня 2018
    • 1009413|Лето|7 июня 2018|200|300Лето
      Дата выхода: 7 июня 2018
    • 935794|Первые|7 июня 2018|200|300Первые
      Дата выхода: 7 июня 2018
    • 1112132|Реинкарнация|7 июня 2018|200|300Реинкарнация
      Дата выхода: 7 июня 2018
    • 1118194|Решение о ликвидации|7 июня 2018|200|300Решение о ликвидации
      Дата выхода: 7 июня 2018
    Вверх