• Игры для PS4
  • Игры для PS3
  • Игры для XBOX360
  • Игры для PC
  • Игры для PS2
  • Игры для PSP
  • Для телефонов
  • Музыка
  • Книги / Журналы
  • Обои
  • Опрос
    Удобен ли сайт в использовании?
      0
    • Очень удобен, все понятно1,1,false,300,full
    • Удобен1,2,false,300,full
    • Средне1,3,false,300,full
    • Неудобен, трудно ориентироваться1,4,false,300,full
    • Совсем неудобен1,5,false,300,full
    Статистика
    Всего онлайн -
    Гостей -
    Пользователей -
    Короли трекера
    Благодарности () Закрыть
    Информация о фильме
    Название: Девушка пробуждается
    Оригинальное название: Girl Asleep
    Год выхода: 2015
    Жанр: фэнтези, комедия, семейный
    Режиссер: Розмари Майерс
    В ролях: Бетани Витмор, Харрисон Фельдман, Эмбер МакМахон, Мэттью Уиттэт, Имон Фэррен, Тильда Кобэм-Херви, Имоджен Арчер, Катанзарити, Эллен Стил, Майя Стюардсон

    Описание: Мир надвигается на Грету Дрисколл. Ей скоро 15, но она не может оставить детство — там ей комфортно и спокойно, чего не скажешь о непостижимом и новом мире.



    Страна: Австралия
    Продолжительность: 01:17:24
    Перевод: Любительский (одноголосый закадровый) Сэм Квинта
    Субтитры: русские, английские
    Оригинальная аудиодорожка: английский

    Файл
    Качество: BDRemux 1080р
    Видео: AVC / 1920x1080 / 16:9 / 24.000 fps / 25562 kbps / High@L4.1
    Аудио 1: Rus / AC3 / 48.0 KHz / 5.1 / 448 kbps / Сэм Квинта
    Аудио 2: Eng / DTS-HD MA / 48.0 KHz / 5.1 / 2048 kbps / 16 bit (DTS Core 48.0 KHz / 5.1 / 1509 kbps / 16 bit)

    Скриншоты
    [screen]http://img12.lostpic.net/2018/02/11/6b7f8363f835774c698f2abdbd9f937d.png[/screen][screen]http://img12.lostpic.net/2018/02/11/813ec2529e1b1729120240a51ee6eb00.png[/screen][screen]http://img12.lostpic.net/2018/02/11/ea73efd47957e84c2f5cdb7cf4d5dd2e.png[/screen]Свернуть


    MediaInfo
    Общее
    Уникальный идентификатор : 235642757136251709244131150951615217462 (0xB14724EB40A105B6A12A3F20F26ABF36)
    Полное имя : Girl.Asleep.2015.BDRemux.1080p.mkv
    Формат : Matroska
    Версия формата : Version 4 / Version 2
    Размер файла : 15,2 Гбайт
    Продолжительность : 1 ч. 17 м.
    Режим общего битрейта : Переменный
    Общий поток : 28,1 Мбит/сек
    Название фильма : Girl.Asleep.2015.BDRemux.1080p-porvaliparus
    Дата кодирования : UTC 2017-07-29 11:05:04
    Программа кодирования : mkvmerge v13.0.0 ("The Juggler") 64bit
    Библиотека кодирования : libebml v1.3.4 + libmatroska v1.4.5

    Видео
    Идентификатор : 1
    Формат : AVC
    Формат/Информация : Advanced Video Codec
    Профиль формата : High@L4.1
    Параметр CABAC формата : Да
    Параметр ReFrames формата : 4 кадра
    Параметр GOP формата : M=3, N=12
    Идентификатор кодека : V_MPEG4/ISO/AVC
    Продолжительность : 1 ч. 17 м.
    Вид битрейта : Переменный
    Битрейт : 25,6 Мбит/сек
    Максимальный битрейт : 35,5 Мбит/сек
    Ширина : 1920 пикселей
    Высота : 1080 пикселей
    Соотношение сторон : 16:9
    Режим частоты кадров : Постоянный
    Частота кадров : 24,000 кадра/сек
    Стандарт вещания : NTSC
    Цветовое пространство : YUV
    Субдискретизация насыщенности : 4:2:0
    Битовая глубина : 8 бит
    Тип развёртки : Прогрессивная
    Бит/(Пиксели*Кадры) : 0.514
    Размер потока : 13,8 Гбайт (91%)
    Заголовок : Girl.Asleep.2015.BDRemux.1080p
    Default : Да
    Forced : Нет
    Цветовой диапазон : Limited
    Основные цвета : BT.709
    Характеристики трансфера : BT.709
    Коэффициенты матрицы : BT.709

    Аудио #1
    Идентификатор : 2
    Формат : AC-3
    Формат/Информация : Audio Coding 3
    Параметр Endianness формата : Big
    Идентификатор кодека : A_AC3
    Продолжительность : 1 ч. 17 м.
    Вид битрейта : Постоянный
    Битрейт : 448 Кбит/сек
    Каналы : 6 каналов
    Расположение каналов : Front: L C R, Side: L R, LFE
    Частота : 48,0 КГц
    Частота кадров : 31,250 кадров/сек (1536 spf)
    Битовая глубина : 16 бит
    Метод сжатия : С потерями
    Размер потока : 248 Мбайт (2%)
    Заголовок : VO [Сэм Квинта]
    Язык : Russian
    Default : Да
    Forced : Нет

    Аудио #2
    Идентификатор : 3
    Формат : DTS
    Формат/Информация : Digital Theater Systems
    Профиль формата : MA / Core
    Режим : 16
    Параметр Endianness формата : Big
    Идентификатор кодека : A_DTS
    Продолжительность : 1 ч. 17 м.
    Вид битрейта : Переменный / Постоянный
    Битрейт : 2048 Кбит/сек / 1509 Кбит/сек
    Каналы : 6 каналов
    Расположение каналов : Front: L C R, Side: L R, LFE
    Частота : 48,0 КГц
    Частота кадров : 93,750 кадра/сек (512 spf)
    Битовая глубина : 16 бит
    Метод сжатия : Без потерь / Lossy
    Размер потока : 1,09 Гбайт (7%)
    Язык : English
    Default : Нет
    Forced : Нет

    Текст #1
    Идентификатор : 4
    Формат : UTF-8
    Идентификатор кодека : S_TEXT/UTF8
    Идентификатор кодека/Информация : UTF-8 Plain Text
    Продолжительность : 1 ч. 13 м.
    Битрейт : 70 бит/сек
    ElementCount : 724
    Размер потока : 38,3 Кбайт (0%)
    Заголовок : rus [Other One]
    Язык : Russian
    Default : Нет
    Forced : Нет

    Текст #2
    Идентификатор : 5
    Формат : UTF-8
    Идентификатор кодека : S_TEXT/UTF8
    Идентификатор кодека/Информация : UTF-8 Plain Text
    Продолжительность : 1 ч. 17 м.
    Битрейт : 56 бит/сек
    ElementCount : 1377
    Размер потока : 32,0 Кбайт (0%)
    Язык : English
    Default : Нет
    Forced : Нет

    Меню
    00:00:00.000 : en:Chapter 01
    00:05:14.416 : en:Chapter 02
    00:09:31.000 : en:Chapter 03
    00:17:06.500 : en:Chapter 04
    00:26:05.000 : en:Chapter 05
    00:32:35.375 : en:Chapter 06
    00:42:34.000 : en:Chapter 07
    00:55:16.208 : en:Chapter 08
    01:07:30.750 : en:Chapter 09
    01:13:31.041 : en:Chapter 10Свернуть
    Похожие раздачи Искать похожие
    Инструкция по скачиванию
     1  Качаем uTorrent версии 2.0 и выше
     2  После установки, жмем выше под постером на ссылку Скачать [MediaGet] или Скачать .torrent
     3  Открываем скачанный файл через соответствующий клиент: MediaGet или uTorrent
     4  Ждем пока подключатся участники
     5  Качаем
    Комментарии о  Девушка пробуждается / Girl Asleep | BDRemux 1080p 
    Ближайшее в кино
    Вверх