• Игры для PS4
  • Игры для PS3
  • Игры для XBOX360
  • Игры для PC
  • Игры для PS2
  • Игры для PSP
  • Для телефонов
  • Музыка
  • Книги / Журналы
  • Обои
  • Опрос
    Откуда Вы о нас узнали?
      0
    • От знакомых2,1,false,300,full
    • Из социальных сетей2,2,false,300,full
    • Из поисковых систем2,3,false,300,full
    • Другое2,4,false,300,full
    Статистика
    Всего онлайн -
    Гостей -
    Пользователей -
    Короли трекера
    Благодарности () Закрыть
    Информация о фильме
    Название: Ты исчезнешь
    Оригинальное название: Du forsvinder
    Год выпуска: 2017
    Жанр:  Драма
    Режиссер: Петер Шонау Фог
    В ролях: Трине Дюрхольм, Николай Ли Каас, Микаэл Нюквист, Тейс Байер, Лаура Бро, Михаэль Броструп, Регитсе Эструп

    О фильме:
    Порой знакомый человек, может измениться до неузнаваемости, скрывая от своих близких, множество тайн, он ежедневно совершает преступления, в которых его однажды обвинят. Но, что же заставляет, обычного трудоголика, пойти на данный шаг, так и остается загадкой. Именно, к такому мнению приходят датские следователи, расследующие дело известного директора частного пансионата для детей. В нем обучались дети, принадлежащие к знатным домам, или же те, чьи родители, были готовы расстаться с огромной суммой денег, чтобы их ребенок, обрел светские знания, преподаваемые в одной из старейших школ страны.


    Страна: Дания, Швеция
    Студия: Film Väst, Zentropa Productions
    Продолжительность: 01:52:48
    Перевод: Любительский многоголосый [GreenРай Studio]

    Файл
    Кодек: x.264
    Качество: WEB-DLRip 720p
    Видео: 4000 Кбит/с, 1280x536, 25.000 fps
    Звук: Русский (AC3, 2 ch, 384 Кбит/с)



    MediaInfo
    General
    Unique ID                   : 204166002519572060970684626523311644239 (0x9998F11901D29BE9968CCAC918351E4F)
    Complete name               : E:GreenRayDu.Forsvinder.2017.P.WEB-DL.720p.mkv
    Format                      : Matroska
    Format version              : Version 4 / Version 2
    File size                   : 3.41 GiB
    Duration                    : 1 h 52 min
    Overall bit rate mode       : Constant
    Overall bit rate            : 4 323 kb/s
    Encoded date                : UTC 2018-02-10 13:19:02
    Writing application         : mkvmerge v8.3.0 ("Over the Horizon") 64bit
    Writing library             : libebml v1.3.1 + libmatroska v1.4.2

    Video
    ID                          : 1
    Format                      : AVC
    Format/Info                 : Advanced Video Codec
    Format profile              : Main@L3.1
    Format settings             : CABAC / 3 Ref Frames
    Format settings, CABAC      : Yes
    Format settings, ReFrames   : 3 frames
    Codec ID                    : V_MPEG4/ISO/AVC
    Duration                    : 1 h 52 min
    Bit rate mode               : Constant
    Bit rate                    : 4 000 kb/s
    Width                       : 1 280 pixels
    Height                      : 536 pixels
    Display aspect ratio        : 2.40:1
    Frame rate mode             : Constant
    Frame rate                  : 25.000 FPS
    Standard                    : NTSC
    Color space                 : YUV
    Chroma subsampling          : 4:2:0
    Bit depth                   : 8 bits
    Scan type                   : Progressive
    Bits/(Pixel*Frame)          : 0.233
    Stream size                 : 3.10 GiB (91%)
    Language                    : English
    Default                     : Yes
    Forced                      : No
    Color range                 : Limited

    Audio
    ID                          : 2
    Format                      : AC-3
    Format/Info                 : Audio Coding 3
    Codec ID                    : A_AC3
    Duration                    : 1 h 52 min
    Bit rate mode               : Constant
    Bit rate                    : 384 kb/s
    Channel(s)                  : 2 channels
    Channel positions           : Front: L R
    Sampling rate               : 48.0 kHz
    Frame rate                  : 31.250 FPS (1536 SPF)
    Bit depth                   : 16 bits
    Compression mode            : Lossy
    Stream size                 : 310 MiB (9%)
    Service kind                : Complete Main
    Default                     : Yes
    Forced                      : No

    Свернуть


    Внимание,имеется  видео и аудио реклама от спонсора показа

    Над релизом работали:
    Состав дикторов: Анастасия Гайдаржи, Валерий Брагин, Андрей Данилко
    Руководитель проекта и координатор: Евгений Овчаренко
    Организатор и координатор: Никита Марков
    Пиар менеджер студии: Гриша Чернозатонский
    Техническая поддержка: Александр Методий
    Похожие раздачи Искать похожие
    Инструкция по скачиванию
     1  Качаем uTorrent версии 2.0 и выше
     2  После установки, жмем выше под постером на ссылку Скачать [MediaGet] или Скачать .torrent
     3  Открываем скачанный файл через соответствующий клиент: MediaGet или uTorrent
     4  Ждем пока подключатся участники
     5  Качаем
    Комментарии о  Ты исчезнешь / Du forsvinder | WEB-DLRip 720p 
    Ближайшее в кино
    Вверх