• Игры для PS3
  • Игры для XBOX360
  • Игры для PC
  • Игры для PS2
  • Игры для PSP
  • Для телефонов
  • Музыка
  • Книги/Журналы
  • Обои
  •  
    Опрос
    Удобен ли сайт в использовании?
      0
    • Очень удобен, все понятно1,1,false,300,full
    • Удобен1,2,false,300,full
    • Средне1,3,false,300,full
    • Неудобен, трудно ориентироваться1,4,false,300,full
    • Совсем неудобен1,5,false,300,full
    Статистика
    Загрузка...
    Ты исчезнешь / Du forsvinder | WEB-DLRip 720p
    Статус  Проверено
    В закладки
    Модератор: Max

    Ты исчезнешь / Du forsvinder | WEB-DLRip 720p [Фильмы 2017] скачать торрентом/torrent бесплатно

    Год выхода
    Категории
    Язык
    Закачал
    Max | 11 февраля 2018 в 17ч 04м 03с
    Раздел
    Отзывов
    0
    Раздают: 36 Качают: 6 Скачали: 46 Размер: 3.41 GB
    Инфо о раздаче | Благодарности |
    0/5
    0
    Поддержи нас — расскажи друзьям!
    Orbitum
    Новый интернет-браузер Быстрее загружает сайты Экономит интернет—трафик Меняет оформление страницы ВК Блокирует всю рекламу на сайтах Загружает торренты как

    µTorrent

    клиент
    Объеденяет все твои чаты из соц. сетей в один Проигрывает твою музыку не заходя во ВКонтакте
    Скачать и многое другое... Подробности на сайте производителя
    Информация о фильме
    Название: Ты исчезнешь
    Оригинальное название: Du forsvinder
    Год выпуска: 2017
    Жанр:  Драма
    Режиссер: Петер Шонау Фог
    В ролях: Трине Дюрхольм, Николай Ли Каас, Микаэл Нюквист, Тейс Байер, Лаура Бро, Михаэль Броструп, Регитсе Эструп

    О фильме:
    Порой знакомый человек, может измениться до неузнаваемости, скрывая от своих близких, множество тайн, он ежедневно совершает преступления, в которых его однажды обвинят. Но, что же заставляет, обычного трудоголика, пойти на данный шаг, так и остается загадкой. Именно, к такому мнению приходят датские следователи, расследующие дело известного директора частного пансионата для детей. В нем обучались дети, принадлежащие к знатным домам, или же те, чьи родители, были готовы расстаться с огромной суммой денег, чтобы их ребенок, обрел светские знания, преподаваемые в одной из старейших школ страны.


    Страна: Дания, Швеция
    Студия: Film Väst, Zentropa Productions
    Продолжительность: 01:52:48
    Перевод: Любительский многоголосый [GreenРай Studio]

    Файл
    Кодек: x.264
    Качество: WEB-DLRip 720p
    Видео: 4000 Кбит/с, 1280x536, 25.000 fps
    Звук: Русский (AC3, 2 ch, 384 Кбит/с)



    MediaInfo
    General
    Unique ID                   : 204166002519572060970684626523311644239 (0x9998F11901D29BE9968CCAC918351E4F)
    Complete name               : E:GreenRayDu.Forsvinder.2017.P.WEB-DL.720p.mkv
    Format                      : Matroska
    Format version              : Version 4 / Version 2
    File size                   : 3.41 GiB
    Duration                    : 1 h 52 min
    Overall bit rate mode       : Constant
    Overall bit rate            : 4 323 kb/s
    Encoded date                : UTC 2018-02-10 13:19:02
    Writing application         : mkvmerge v8.3.0 ("Over the Horizon") 64bit
    Writing library             : libebml v1.3.1 + libmatroska v1.4.2

    Video
    ID                          : 1
    Format                      : AVC
    Format/Info                 : Advanced Video Codec
    Format profile              : Main@L3.1
    Format settings             : CABAC / 3 Ref Frames
    Format settings, CABAC      : Yes
    Format settings, ReFrames   : 3 frames
    Codec ID                    : V_MPEG4/ISO/AVC
    Duration                    : 1 h 52 min
    Bit rate mode               : Constant
    Bit rate                    : 4 000 kb/s
    Width                       : 1 280 pixels
    Height                      : 536 pixels
    Display aspect ratio        : 2.40:1
    Frame rate mode             : Constant
    Frame rate                  : 25.000 FPS
    Standard                    : NTSC
    Color space                 : YUV
    Chroma subsampling          : 4:2:0
    Bit depth                   : 8 bits
    Scan type                   : Progressive
    Bits/(Pixel*Frame)          : 0.233
    Stream size                 : 3.10 GiB (91%)
    Language                    : English
    Default                     : Yes
    Forced                      : No
    Color range                 : Limited

    Audio
    ID                          : 2
    Format                      : AC-3
    Format/Info                 : Audio Coding 3
    Codec ID                    : A_AC3
    Duration                    : 1 h 52 min
    Bit rate mode               : Constant
    Bit rate                    : 384 kb/s
    Channel(s)                  : 2 channels
    Channel positions           : Front: L R
    Sampling rate               : 48.0 kHz
    Frame rate                  : 31.250 FPS (1536 SPF)
    Bit depth                   : 16 bits
    Compression mode            : Lossy
    Stream size                 : 310 MiB (9%)
    Service kind                : Complete Main
    Default                     : Yes
    Forced                      : No



    Внимание,имеется  видео и аудио реклама от спонсора показа

    Над релизом работали:
    Состав дикторов: Анастасия Гайдаржи, Валерий Брагин, Андрей Данилко
    Руководитель проекта и координатор: Евгений Овчаренко
    Организатор и координатор: Никита Марков
    Пиар менеджер студии: Гриша Чернозатонский
    Техническая поддержка: Александр Методий
    Еще похожие »

    Как скачать?
    1. Качаем UTorrent версии 2.0 и выше отсюда
    2. После установки, жмем на ссылку Скачать торрент.
    3. Открываем его через utorrent.
    4. Ждем пока подключатся участники.
    5. Качаем.


    Комментарии о Ты исчезнешь / Du forsvinder | WEB-DLRip 720p
    Добавлять комментарии могут только зарегистрированные пользователи

    Зарегистрироваться или Войти


    Ближайшее в кино
    • Секретное досье дата выхода 22 февраля 2018Секретное досье
      Дата выхода: 22 февраля 2018
    • О чём говорят мужчины. Продолжение дата выхода 22 февраля 2018О чём говорят мужчины. Продолжение
      Дата выхода: 22 февраля 2018
    • Все деньги мира дата выхода 22 февраля 2018Все деньги мира
      Дата выхода: 22 февраля 2018
    • Рубеж дата выхода 22 февраля 2018Рубеж
      Дата выхода: 22 февраля 2018
    • Дикий дата выхода 22 февраля 2018Дикий
      Дата выхода: 22 февраля 2018
    • Кикбоксер возвращается дата выхода 22 февраля 2018Кикбоксер возвращается
      Дата выхода: 22 февраля 2018
    • На пределе дата выхода 22 февраля 2018На пределе
      Дата выхода: 22 февраля 2018
    • Ночные игры дата выхода 22 февраля 2018Ночные игры
      Дата выхода: 22 февраля 2018
    • Человек, который спас мир дата выхода 22 февраля 2018Человек, который спас мир
      Дата выхода: 22 февраля 2018
    • Гномы в доме дата выхода 22 февраля 2018Гномы в доме
      Дата выхода: 22 февраля 2018
    • Кошка на раскалённой крыше дата выхода 22 февраля 2018Кошка на раскалённой крыше
      Дата выхода: 22 февраля 2018
    • Вся наша надежда дата выхода 22 февраля 2018Вся наша надежда
      Дата выхода: 22 февраля 2018
    • В Питере – петь. Сергей Шнуров дата выхода 22 февраля 2018В Питере – петь. Сергей Шнуров
      Дата выхода: 22 февраля 2018
    • Богема дата выхода 24 февраля 2018Богема
      Дата выхода: 24 февраля 2018
    • Чёрная Пантера дата выхода 26 февраля 2018Чёрная Пантера
      Дата выхода: 26 февраля 2018
    Вверх