• Игры для PS3
  • Игры для XBOX360
  • Игры для PC
  • Игры для PS2
  • Игры для PSP
  • Для телефонов
  • Музыка
  • Книги/Журналы
  • Обои
  •  
    Опрос
    Откуда Вы о нас узнали?
      0
    • От знакомых2,1,false,300,full
    • Из социальных сетей2,2,false,300,full
    • Из поисковых систем2,3,false,300,full
    • Другое2,4,false,300,full
    Статистика
    Загрузка...
    Мисс Слоун / Miss Sloane | BDRip 720p
    Статус  Проверено
    В закладки
    Модератор: Max

    Мисс Слоун / Miss Sloane | BDRip 720p [Фильмы 2016] скачать торрентом/torrent бесплатно

    Год выхода
    Категории
    Язык
    Закачал
    Max | 11 февраля в 18ч 48м 11с
    Раздел
    Отзывов
    0
    Раздают: 26 Качают: 0 Скачали: 36 Размер: 6.43 GB
    Инфо о раздаче | Благодарности |
    0/5
    0
    0 5 0
    Поддержи нас — расскажи друзьям!
    Orbitum
    Новый интернет-браузер Быстрее загружает сайты Экономит интернет—трафик Меняет оформление страницы ВК Блокирует всю рекламу на сайтах Загружает торренты как

    µTorrent

    клиент
    Объеденяет все твои чаты из соц. сетей в один Проигрывает твою музыку не заходя во ВКонтакте
    Скачать и многое другое... Подробности на сайте производителя
    Информация о фильме
    Название: Мисс Слоун
    Оригинальное название: Miss Sloane
    Год выхода: 2016
    Жанр: Триллер, драма
    Режиссер: Джон Мэдден
    В ролях: Джессика Честейн, Гугу Эмбата-Ро, Марк Стронг, Джон Литгоу, Элисон Пилл, Майкл Стулбарг, Джейк Лэси, Сэм Уотерстон, Дуглас Смит, Дилан Бэйкер
    О фильме:
    История о блестящем и беспощадном лоббисте, которая прославилась беспрецедентным талантом и желанием победить любой ценой, даже тогда, когда это ставит ее карьеру под угрозу. Встречайте Элизабет Слоун. Она лоббист и настоящий мастер своего дела. О ней идут легенды, и эту женщину недооценивать нельзя. Она берется за самое сложное и опасное дело в своей жизни и решает его выиграть не смотря ни на что. На кону все: ее карьера, ее репутация, имидж фирмы, на которую она стала работать. На женщину оказывается нереально большое давление, но в этой изощренной и запутанной игре она должна победить, ведь таких как мисс Слоун больше не бывает…


    Выпущено: Великобритания, США, Франция, Archery Pictures, FilmNation Entertainment, Transfilm
    Продолжительность: 02:12:11
    Перевод: Любительский (двухголосый закадровый) lord666 и Анна Полевская
    Файл
    Кодек: H.264
    Качество: BDRip 720p
    Видео: MPEG-4 AVC, 5000 Кбит/с, 1280x536
    Звук: Русский (AC3, 6 ch, 448 Кбит/с), английский (DTS, 6 ch, 1509 Кбит/с)
    Субтитры: Русские, английские

    Без какой-либо рекламы
    MediaInfo
    Формат                                   : Matroska
    Версия формата                           : Version 4 / Version 2
    Размер файла                             : 6,43 Гбайт
    Продолжительность                        : 2 ч. 12 м.
    Общий поток                              : 6959 Кбит/сек
    Название фильма                          : Miss.Sloun.2016.x264.BDRip.(720p).ExKinoRay
    Дата кодирования                         : UTC 2018-02-11 13:45:37
    Программа кодирования                    : mkvmerge v17.0.0 ("Be Ur Friend") 64-bit
    Библиотека кодирования                   : libebml v1.3.5 + libmatroska v1.4.8

    Видео
    Идентификатор                            : 1
    Формат                                   : AVC
    Формат/Информация                        : Advanced Video Codec
    Профиль формата                          : High@L4.1
    Параметр CABAC формата                   : Да
    Параметр ReFrames формата                : 12 кадров
    Идентификатор кодека                     : V_MPEG4/ISO/AVC
    Продолжительность                        : 2 ч. 12 м.
    Битрейт                                  : 5000 Кбит/сек
    Ширина                                   : 1280 пикселей
    Высота                                   : 536 пикселей
    Соотношение сторон                       : 2,40:1
    Режим частоты кадров                     : Постоянный
    Частота кадров                           : 23,976 (24000/1001) кадра/сек
    Цветовое пространство                    : YUV
    Субдискретизация насыщенности            : 4:2:0
    Битовая глубина                          : 8 бит
    Тип развёртки                            : Прогрессивная
    Бит/(Пиксели*Кадры)                      : 0.304
    Размер потока                            : 4,62 Гбайт (72%)
    Заголовок                                : ExKinoRay
    Библиотека кодирования                   : x264 core 146 r2538 121396c
    Настройки программы                      : cabac=1 / ref=12 / deblock=1:-2:-2 / analyse=0x3:0x113 / me=umh / subme=10 / psy=1 / psy_rd=1.00:0.00 / mixed_ref=1 / me_range=32 / chroma_me=1 / trellis=2 / 8x8dct=1 / cqm=0 / deadzone=21,11 / fast_pskip=0 / chroma_qp_offset=-3 / threads=6 / lookahead_threads=1 / sliced_threads=0 / nr=0 / decimate=0 / interlaced=0 / bluray_compat=0 / constrained_intra=0 / bframes=8 / b_pyramid=2 / b_adapt=2 / b_bias=0 / direct=3 / weightb=1 / open_gop=0 / weightp=2 / keyint=240 / keyint_min=23 / scenecut=40 / intra_refresh=0 / rc_lookahead=40 / rc=2pass / mbtree=0 / bitrate=5000 / ratetol=1.0 / qcomp=0.60 / qpmin=0 / qpmax=51 / qpstep=4 / cplxblur=20.0 / qblur=0.5 / vbv_maxrate=50000 / vbv_bufsize=62500 / nal_hrd=none / filler=0 / ip_ratio=1.40 / pb_ratio=1.30 / aq=2:1.00
    Язык                                     : English
    Default                                  : Да
    Forced                                   : Нет

    Аудио #1
    Идентификатор                            : 2
    Формат                                   : AC-3
    Формат/Информация                        : Audio Coding 3
    Расширение режима                        : CM (complete main)
    Параметр Endianness формата              : Big
    Идентификатор кодека                     : A_AC3
    Продолжительность                        : 2 ч. 12 м.
    Вид битрейта                             : Постоянный
    Битрейт                                  : 448 Кбит/сек
    Каналы                                   : 6 каналов
    Расположение каналов                     : Front: L C R, Side: L R, LFE
    Частота                                  : 48,0 КГц
    Частота кадров                           : 31,250 кадров/сек (1536 spf)
    Битовая глубина                          : 16 бит
    Метод сжатия                             : С потерями
    Размер потока                            : 424 Мбайт (6%)
    Язык                                     : Russian
    Default                                  : Да
    Forced                                   : Нет

    Аудио #2
    Идентификатор                            : 3
    Формат                                   : DTS
    Формат/Информация                        : Digital Theater Systems
    Режим                                    : 16
    Параметр Endianness формата              : Big
    Идентификатор кодека                     : A_DTS
    Продолжительность                        : 2 ч. 12 м.
    Вид битрейта                             : Постоянный
    Битрейт                                  : 1509 Кбит/сек
    Каналы                                   : 6 каналов
    Расположение каналов                     : Front: L C R, Side: L R, LFE
    Частота                                  : 48,0 КГц
    Частота кадров                           : 93,750 кадра/сек (512 spf)
    Битовая глубина                          : 24 бит
    Метод сжатия                             : С потерями
    Размер потока                            : 1,39 Гбайт (22%)
    Язык                                     : English
    Default                                  : Нет
    Forced                                   : Нет

    Текст #1
    Идентификатор                            : 4
    Формат                                   : UTF-8
    Идентификатор кодека                     : S_TEXT/UTF8
    Идентификатор кодека/Информация          : UTF-8 Plain Text
    Продолжительность                        : 2 ч. 6 м.
    Битрейт                                  : 177 бит/сек
    Count of elements                        : 1667
    Размер потока                            : 164 Кбайт (0%)
    Язык                                     : Russian
    Default                                  : Нет
    Forced                                   : Нет

    Текст #2
    Идентификатор                            : 5
    Формат                                   : UTF-8
    Идентификатор кодека                     : S_TEXT/UTF8
    Идентификатор кодека/Информация          : UTF-8 Plain Text
    Продолжительность                        : 2 ч. 7 м.
    Битрейт                                  : 110 бит/сек
    Count of elements                        : 1635
    Размер потока                            : 103 Кбайт (0%)
    Язык                                     : English
    Default                                  : Нет
    Forced                                   : Нет

    Меню
    00:00:00.000                             : en:Chapter 01
    00:03:17.572                             : en:Chapter 02
    00:10:01.810                             : en:Chapter 03
    00:14:33.331                             : en:Chapter 04
    00:21:39.632                             : en:Chapter 05
    00:27:24.601                             : en:Chapter 06
    00:30:24.614                             : en:Chapter 07
    00:35:40.597                             : en:Chapter 08
    00:40:37.018                             : en:Chapter 09
    00:45:36.651                             : en:Chapter 10
    00:50:08.130                             : en:Chapter 11
    00:56:55.662                             : en:Chapter 12
    01:01:31.146                             : en:Chapter 13
    01:05:00.563                             : en:Chapter 14
    01:10:10.415                             : en:Chapter 15
    01:15:56.552                             : en:Chapter 16
    01:22:25.399                             : en:Chapter 17
    01:31:17.097                             : en:Chapter 18
    01:35:47.825                             : en:Chapter 19
    01:41:48.436                             : en:Chapter 20
    01:45:25.653                             : en:Chapter 21
    01:54:30.781                             : en:Chapter 22
    02:03:40.288                             : en:Chapter 23
    02:08:02.008                             : en:Chapter 24


    Скриншоты
    [img]http://lostpix.com/img/2018-02/11/sg0x6clwer4r6l7zas24toa7f.png[/img][img]http://lostpix.com/img/2018-02/11/5f68mrw0beu63bkitdl7bjck5.png[/img]
    [img]http://lostpix.com/img/2018-02/11/73ktm3k9fmidaz2x4n1w5q4yf.png[/img][img]http://lostpix.com/img/2018-02/11/x92gqepwvc8i69icherxrskbn.png[/img]  
    Еще похожие »

    Как скачать?
    1. Качаем UTorrent версии 2.0 и выше отсюда
    2. После установки, жмем на ссылку Скачать торрент.
    3. Открываем его через utorrent.
    4. Ждем пока подключатся участники.
    5. Качаем.


    Комментарии о Мисс Слоун / Miss Sloane | BDRip 720p
    Добавлять комментарии могут только зарегистрированные пользователи

    Зарегистрироваться или Войти


    Ближайшее в кино
    • Невидимый гость дата выхода 31 мая 2018Невидимый гость
      Дата выхода: 31 мая 2018
    • 762500|Красный воробей|31 мая 2018|200|300Красный воробей
      Дата выхода: 31 мая 2018
    • 843121|Как разговаривать с девушками на вечеринках|31 мая 2018|200|300Как разговаривать с девушками на вечеринках
      Дата выхода: 31 мая 2018
    • 965611|Истории призраков|31 мая 2018|200|300Истории призраков
      Дата выхода: 31 мая 2018
    • 1048530|Моя жизнь|31 мая 2018|200|300Моя жизнь
      Дата выхода: 31 мая 2018
    • 1030828|Псы под прикрытием|31 мая 2018|200|300Псы под прикрытием
      Дата выхода: 31 мая 2018
    • 927822|Два хвоста|31 мая 2018|200|300Два хвоста
      Дата выхода: 31 мая 2018
    • 1061480|От семьи не убежишь|31 мая 2018|200|300От семьи не убежишь
      Дата выхода: 31 мая 2018
    • 1057083|Сказки о маме|31 мая 2018|200|300Сказки о маме
      Дата выхода: 31 мая 2018
    • 924311|Мир Юрского периода 2|7 июня 2018|200|300Мир Юрского периода 2
      Дата выхода: 7 июня 2018
    • 1074222|Красотка на всю голову|7 июня 2018|200|300Красотка на всю голову
      Дата выхода: 7 июня 2018
    • 1009413|Лето|7 июня 2018|200|300Лето
      Дата выхода: 7 июня 2018
    • 935794|Первые|7 июня 2018|200|300Первые
      Дата выхода: 7 июня 2018
    • 1112132|Реинкарнация|7 июня 2018|200|300Реинкарнация
      Дата выхода: 7 июня 2018
    • 1118194|Решение о ликвидации|7 июня 2018|200|300Решение о ликвидации
      Дата выхода: 7 июня 2018
    Вверх