• Игры для PS4
  • Игры для PS3
  • Игры для XBOX360
  • Игры для PC
  • Игры для PS2
  • Игры для PSP
  • Для телефонов
  • Музыка
  • Книги / Журналы
  • Обои
  • Опрос
    Откуда Вы о нас узнали?
      0
    • От знакомых2,1,false,300,full
    • Из социальных сетей2,2,false,300,full
    • Из поисковых систем2,3,false,300,full
    • Другое2,4,false,300,full
    Статистика
    Всего онлайн -
    Гостей -
    Пользователей -
    Короли трекера
    
    Благодарности () Закрыть
    Информация о фильме
    Название: Когда убывает день
    Оригинальное название: In Zeiten des abnehmenden Lichts
    Год выпуска: 2017
    Жанр:  Драма, комедия
    Режиссер: Матти Гешоннек
    В ролях: Бруно Ганц, Александр Фелинг, Сильвестр Грот, Пит Буковски, Ангела Винклер, Евгения Додина, Штефан Гросман, Габриэла Мария Шмайде, Торстен Мертен, Жан Денис Рёмер

    О фильме:
    Восточный Берлин, осень 1989-го. Вильгельму Повилайту, крупнейшему государственному и партийному руководителю Германской Демоaкратической Республики, сегодня исполняется 90 лет. Несмотря на то, что в силу возраста он уже не занимает государственных постов, авторитет его незыблем: он знает, что поздравлять его будут и с первых полос главных газет, и лично. Поэтому с утра в доме в ожидании гостей суетятся и давно не молодая жена, и домработница.


    Страна: Германия
    Студия: MOOVIE the art of entertainment GmbH, Zweites Deutsches Fernsehen (ZDF), Beta Cinema
    Продолжительность: 01:41:58
    Перевод: Любительский многоголосый [GreenРай Studio]

    Файл
    Кодек: x264
    Качество: HDRip 720p
    Видео: 4000 Кбит/с, 1280x536, 24.000 fps
    Звук: Русский (MP3, 2 ch, 320 Кбит/с)



    MediaInfo
    General
    Unique ID                   : 182984048193187277661350666351145513811 (0x89A9721E610163A7AE749564DA09F353)
    Complete name               : E:GreenRayIn.Zeiten.des.abnehmenden.Lichts.2017.P.BDRip.720p.mkv
    Format                      : Matroska
    Format version              : Version 4 / Version 2
    File size                   : 3.02 GiB
    Duration                    : 1 h 41 min
    Overall bit rate mode       : Constant
    Overall bit rate            : 4 243 kb/s
    Encoded date                : UTC 2018-02-10 16:15:33
    Writing application         : mkvmerge v8.3.0 ("Over the Horizon") 64bit
    Writing library             : libebml v1.3.1 + libmatroska v1.4.2

    Video
    ID                          : 1
    Format                      : AVC
    Format/Info                 : Advanced Video Codec
    Format profile              : Main@L3.1
    Format settings             : CABAC / 3 Ref Frames
    Format settings, CABAC      : Yes
    Format settings, ReFrames   : 3 frames
    Format settings, GOP        : M=4, N=15
    Codec ID                    : V_MPEG4/ISO/AVC
    Duration                    : 1 h 41 min
    Bit rate mode               : Constant
    Bit rate                    : 4 000 kb/s
    Width                       : 1 280 pixels
    Height                      : 536 pixels
    Display aspect ratio        : 2.40:1
    Frame rate mode             : Constant
    Frame rate                  : 24.000 FPS
    Standard                    : NTSC
    Color space                 : YUV
    Chroma subsampling          : 4:2:0
    Bit depth                   : 8 bits
    Scan type                   : Progressive
    Bits/(Pixel*Frame)          : 0.243
    Stream size                 : 2.79 GiB (92%)
    Language                    : English
    Default                     : Yes
    Forced                      : No
    Color range                 : Limited

    Audio
    ID                          : 2
    Format                      : MPEG Audio
    Format version              : Version 1
    Format profile              : Layer 3
    Format settings             : Joint stereo
    Codec ID                    : A_MPEG/L3
    Codec ID/Hint               : MP3
    Duration                    : 1 h 41 min
    Bit rate mode               : Constant
    Bit rate                    : 320 kb/s
    Channel(s)                  : 2 channels
    Sampling rate               : 48.0 kHz
    Frame rate                  : 41.667 FPS (1152 SPF)
    Compression mode            : Lossy
    Stream size                 : 233 MiB (8%)
    Default                     : Yes
    Forced                      : NoСвернуть


    Внимание,имеется  видео и аудио реклама от спонсора показа

    Над релизом работали:
    Состав дикторов Нана Саркисян, Дмитрий Кравченко, Станислав Винник
    Руководитель проекта и координатор: Евгений Овчаренко
    Организатор и координатор: Никита Марков
    Пиар менеджер студии: Гриша Чернозатонский
    Техническая поддержка: Александр Методий
    Похожие раздачи Искать похожие
    Инструкция по скачиванию
     1  Качаем uTorrent версии 2.0 и выше
     2  После установки, жмем выше под постером на ссылку Скачать [MediaGet] или Скачать .torrent
     3  Открываем скачанный файл через соответствующий клиент: MediaGet или uTorrent
     4  Ждем пока подключатся участники
     5  Качаем
    Комментарии о  Когда убывает день / In Zeiten des abnehmenden Lichts | HDRip 720p 
    Ближайшее в кино
    Вверх