• Игры для PS4
  • Игры для PS3
  • Игры для XBOX360
  • Игры для PC
  • Игры для PS2
  • Игры для PSP
  • Для телефонов
  • Музыка
  • Книги/Журналы
  • Обои
  •  
    Опрос
    Откуда Вы о нас узнали?
      0
    • От знакомых2,1,false,300,full
    • Из социальных сетей2,2,false,300,full
    • Из поисковых систем2,3,false,300,full
    • Другое2,4,false,300,full
    Статистика
    Загрузка...
    Короли трекера
    Кошелек или жизнь / Trick 'r Treat | HDRip-AVC
    Статус  Проверено
    В закладки
    Модератор: Max

    Кошелек или жизнь / Trick 'r Treat | HDRip-AVC [Фильмы 2007] скачать торрентом/torrent бесплатно

    Год выхода
    Язык
    Закачал
    Max | 11 февраля в 20ч 37м 49с
    Раздел
    Отзывов
    0
    Раздают: 1 Качают: 0 Скачали: 2 Размер: 745.77 MB
    Инфо о раздаче | Благодарности |
    0/5
    0
    0 5 0
    Поддержи нас — расскажи друзьям!
    Orbitum
    Новый интернет-браузер Быстрее загружает сайты Экономит интернет—трафик Меняет оформление страницы ВК Блокирует всю рекламу на сайтах Загружает торренты как

    µTorrent

    клиент
    Объеденяет все твои чаты из соц. сетей в один Проигрывает твою музыку не заходя во ВКонтакте
    Скачать и многое другое... Подробности на сайте производителя
    Информация о фильме
    Название: Кошелек или жизнь
    Оригинальное название: Trick "r Treat
    Год выхода: 2007
    Жанр:  ужасы, триллер, комедия
    Режиссер: Майкл Догерти /Michael Dougherty/
    В ролях: Куинн Лорд, Брайан Кокс, Дилан Бэйкер, Лесли Бибб, Рошелль Эйтс, Анна Пакуин, Монека Делэйн, Тамох Пеникетт, Лоурен Ли Смит, Бритт МакКилип

    О фильме :
    В четырех пересекающихся друг с другом историях герои нарушают традиции Хэллоуина, наживая себе большие неприятности. Мы познакомимся с учителем, на деле являющимся серийным убийцей; девственницей-студенткой, ждущей своего принца; семейной парой, в которой муж обожает День Всех Святых, а жена не разделяет его восторгов; и группой подростков, задумавших жестокий розыгрыш.



    Страна: США
    Студия: Warner Bros., Legendary Entertainment, Bad Hat Harry Productions
    Продолжительность: 01:22:21
    Перевод: Профессиональный (полное дублирование)

    Файл
    Формат: MKV
    Качество: HDRip-AVC
    Видео: MPEG-4 AVC, 784x324, ~ 1189 Кбит/с
    Аудио: [img]http://i93.fastpic.ru/big/2017/0727/c0/4b72f0369a3393219ed5935e91fc15c0.gif[/img] AAC-LC, 2 ch, ~ 76 Кбит/с
    Субтитры: Русские, английские

    MI
    Общее
    Уникальный идентификатор : 201050229458715550880005913294786188687 (0x9740DDA01753195ABC2CA97EE9AED58F)
    Полное имя : D:MOVIESKoshelek.Ili.Zhizn.2007.ExKinoRay.mkv
    Формат : Matroska
    Версия формата : Version 4 / Version 2
    Размер файла : 746 Мбайт
    Продолжительность : 1 ч. 22 м.
    Общий поток : 1266 Кбит/сек
    Дата кодирования : UTC 2018-02-11 16:49:10
    Программа кодирования : mkvmerge v15.0.0 ("Duel with the Devil") 64-bit
    Библиотека кодирования : libebml v1.3.5 + libmatroska v1.4.5

    Видео
    Идентификатор : 1
    Формат : AVC
    Формат/Информация : Advanced Video Codec
    Профиль формата : High@L4.1
    Параметр CABAC формата : Да
    Параметр RefFrames формата : 10 кадров
    Идентификатор кодека : V_MPEG4/ISO/AVC
    Продолжительность : 1 ч. 22 м.
    Битрейт : 1189 Кбит/сек
    Ширина : 784 пикселя
    Высота : 324 пикселя
    Соотношение сторон : 2,40:1
    Режим частоты кадров : Постоянный
    Частота кадров : 23,976 (24000/1001) кадра/сек
    Цветовое пространство : YUV
    Субдискретизация насыщенности : 4:2:0
    Битовая глубина : 8 бит
    Тип развёртки : Прогрессивная
    Бит/(Пиксели*Кадры) : 0.195
    Размер потока : 700 Мбайт (94%)
    Библиотека кодирования : x264 core 152 r2851 ba24899
    Настройки программы : cabac=1 / ref=10 / deblock=1:-3:-3 / analyse=0x3:0x133 / me=umh / subme=11 / psy=1 / psy_rd=1.00:0.12 / mixed_ref=1 / me_range=32 / chroma_me=1 / trellis=2 / 8x8dct=1 / cqm=0 / deadzone=21,11 / fast_pskip=0 / chroma_qp_offset=-3 / threads=6 / lookahead_threads=1 / sliced_threads=0 / nr=0 / decimate=0 / interlaced=0 / bluray_compat=0 / constrained_intra=0 / bframes=10 / b_pyramid=2 / b_adapt=2 / b_bias=0 / direct=3 / weightb=1 / open_gop=0 / weightp=2 / keyint=240 / keyint_min=23 / scenecut=40 / intra_refresh=0 / rc_lookahead=40 / rc=2pass / mbtree=0 / bitrate=1189 / ratetol=1.0 / qcomp=0.60 / qpmin=0 / qpmax=69 / qpstep=4 / cplxblur=20.0 / qblur=0.5 / vbv_maxrate=50000 / vbv_bufsize=62500 / nal_hrd=none / filler=0 / ip_ratio=1.40 / pb_ratio=1.30 / aq=1:1.00
    Default : Да
    Forced : Нет

    Аудио
    Идентификатор : 2
    Формат : AAC
    Формат/Информация : Advanced Audio Codec
    Профиль формата : LC
    Идентификатор кодека : A_AAC
    Продолжительность : 1 ч. 22 м.
    Битрейт : 76,0 Кбит/сек
    Каналы : 2 канала
    Расположение каналов : Front: L R
    Частота : 48,0 КГц
    Частота кадров : 46,875 кадров/сек (1024 SPF)
    Метод сжатия : С потерями
    Задержка видео : 9 мс.
    Размер потока : 44,8 Мбайт (6%)
    Default : Да
    Forced : Нет

    Текст #1
    Идентификатор : 3
    Формат : UTF-8
    Идентификатор кодека : S_TEXT/UTF8
    Идентификатор кодека/Информация : UTF-8 Plain Text
    Продолжительность : 1 ч. 21 м.
    Битрейт : 40 бит/сек
    ElementCount : 534
    Размер потока : 24,4 Кбайт (0%)
    Default : Нет
    Forced : Нет

    Текст #2
    Идентификатор : 4
    Формат : UTF-8
    Идентификатор кодека : S_TEXT/UTF8
    Идентификатор кодека/Информация : UTF-8 Plain Text
    Продолжительность : 1 ч. 17 м.
    Битрейт : 44 бит/сек
    ElementCount : 511
    Размер потока : 24,9 Кбайт (0%)
    Default : Нет
    Forced : Нет

    Текст #3
    Идентификатор : 5
    Формат : UTF-8
    Идентификатор кодека : S_TEXT/UTF8
    Идентификатор кодека/Информация : UTF-8 Plain Text
    Продолжительность : 1 ч. 21 м.
    Битрейт : 30 бит/сек
    ElementCount : 630
    Размер потока : 18,0 Кбайт (0%)
    Default : Нет
    Forced : Нет


    Скриншоты
    [img]http://i102.fastpic.ru/big/2018/0211/7e/eeb330ec55c74597e88c35953ba5ba7e.jpg[/img][img]http://i100.fastpic.ru/big/2018/0211/67/956b873dbb258121c5d7d510118acc67.jpg[/img][img]http://i102.fastpic.ru/big/2018/0211/eb/bf7275744f1968cfaf88f77509a7eceb.jpg[/img][img]http://i102.fastpic.ru/big/2018/0211/6b/7ce054007bf27bda79b4426732eb396b.jpg[/img]

    [img]http://i103.fastpic.ru/big/2018/0211/b7/a89757a5d0f3d6188f8940ae38a6ceb7.jpg[/img][img]http://i102.fastpic.ru/big/2018/0211/96/f70f572b6acc6e036b250e43c5091c96.jpg[/img][img]http://i100.fastpic.ru/big/2018/0211/96/1b02951a063e3b9f97d27093c1f0cd96.jpg[/img][img]http://i103.fastpic.ru/big/2018/0211/ef/02f72a288d136b5bb106d7de858604ef.jpg[/img]
    Еще похожие »

    Как скачать?
    1. Качаем UTorrent версии 2.0 и выше отсюда
    2. После установки, жмем на ссылку Скачать торрент.
    3. Открываем его через utorrent.
    4. Ждем пока подключатся участники.
    5. Качаем.


    Комментарии о Кошелек или жизнь / Trick 'r Treat | HDRip-AVC
    Добавлять комментарии могут только зарегистрированные пользователи

    Зарегистрироваться или Войти


    Ближайшее в кино
    • Клуб миллиардеров дата выхода 19 июля 2018Клуб миллиардеров
      Дата выхода: 19 июля 2018
    • 848004|Паранормальное|19 июля 2018|200|300Паранормальное
      Дата выхода: 19 июля 2018
    • 993589|Килиманджара|19 июля 2018|200|300Килиманджара
      Дата выхода: 19 июля 2018
    • 1002560|Зои|19 июля 2018|200|300Зои
      Дата выхода: 19 июля 2018
    • 1025011|Офисный беспредел|19 июля 2018|200|300Офисный беспредел
      Дата выхода: 19 июля 2018
    • 1024435|Это чертово сердце|19 июля 2018|200|300Это чертово сердце
      Дата выхода: 19 июля 2018
    • 1169286|МУЛЬТ в кино. Выпуск №78. Наше лето!|21 июля 2018|200|300МУЛЬТ в кино. Выпуск №78. Наше лето!
      Дата выхода: 21 июля 2018
    • 926540|Миссия невыполнима: Последствия|26 июля 2018|200|300Миссия невыполнима: Последствия
      Дата выхода: 26 июля 2018
    • 992614|Обитатели|26 июля 2018|200|300Обитатели
      Дата выхода: 26 июля 2018
    • 854458|Белль и Себастьян: Приключения продолжаются|26 июля 2018|200|300Белль и Себастьян: Приключения продолжаются
      Дата выхода: 26 июля 2018
    • 1049478|Убежище дьявола|26 июля 2018|200|300Убежище дьявола
      Дата выхода: 26 июля 2018
    • 1008732|Мектуб, моя любовь|26 июля 2018|200|300Мектуб, моя любовь
      Дата выхода: 26 июля 2018
    • 1049447|Юные титаны, вперед!|26 июля 2018|200|300Юные титаны, вперед!
      Дата выхода: 26 июля 2018
    • 1067608|Свидетели|26 июля 2018|200|300Свидетели
      Дата выхода: 26 июля 2018
    • 933307|Опасная игра Слоун|2 августа 2018|200|300Опасная игра Слоун
      Дата выхода: 2 августа 2018
    Вверх