• Игры для PS3
  • Игры для XBOX360
  • Игры для PC
  • Игры для PS2
  • Игры для PSP
  • Для телефонов
  • Музыка
  • Книги/Журналы
  • Обои
  •  
    Опрос
    Удобен ли сайт в использовании?
      0
    • Очень удобен, все понятно1,1,false,300,full
    • Удобен1,2,false,300,full
    • Средне1,3,false,300,full
    • Неудобен, трудно ориентироваться1,4,false,300,full
    • Совсем неудобен1,5,false,300,full
    Статистика
    Загрузка...
    Дело храбрых / Only the Brave | HDRip-AVC
    Статус  Проверено
    В закладки
    Модератор: Max

    Дело храбрых / Only the Brave | HDRip-AVC [Фильмы 2017] скачать торрентом/torrent бесплатно

    Год выхода
    Категории
    Язык
    Закачал
    Max | 11 февраля 2018 в 21ч 36м 11с
    Раздел
    Отзывов
    0
    Раздают: 42 Качают: 8 Скачали: 310 Размер: 746.56 MB
    Инфо о раздаче | Благодарности |
    0/5
    0
    Поддержи нас — расскажи друзьям!
    Orbitum
    Новый интернет-браузер Быстрее загружает сайты Экономит интернет—трафик Меняет оформление страницы ВК Блокирует всю рекламу на сайтах Загружает торренты как

    µTorrent

    клиент
    Объеденяет все твои чаты из соц. сетей в один Проигрывает твою музыку не заходя во ВКонтакте
    Скачать и многое другое... Подробности на сайте производителя
    Информация о фильме
    Название: Дело храбрых
    Оригинальное название: Only the Brave
    Год выхода: 2017
    Жанр:  драма, биография
    Режиссер: Джозеф Косински
    В ролях: Джош Бролин, Майлз Теллер, Джефф Бриджес, Джеймс Бэдж Дэйл, Тейлор Китч, Дженнифер Коннелли, Скотт Хэйз, Алекс Расселл, Бен Харди, Натали Холл

    О фильме :
    Огонь - одна из самых страшных стихий. Его пламя несет как пользу человечеству, так и непоправимый ущерб. На борьбу с пожарами смело становятся отважные спасатели. Фильм рассказывает о бригаде пожарных Granite Mountain Hotshots, которые долгие годы тренировались к главному сражению в своей жизни. Когда самый масштабный и смертоносный лесной пожар подобрался к небольшому городу в Аризоне, именно эти парни стали стеной на его пути. Хотя у каждого из них были свои проблемы, все они оставили прочие дела ради спасения людей...



    Страна: США
    Студия: Black Label Media
    Продолжительность: 02:14:03
    Перевод: Любительский многоголосый [HDrezka Studio]

    Файл
    Формат: MKV
    Качество: HDRip-AVC
    Видео: MPEG-4 AVC, 736x308, ~ 700 Кбит/с
    Аудио: [img]http://i93.fastpic.ru/big/2017/0727/c0/4b72f0369a3393219ed5935e91fc15c0.gif[/img] AAC-LC, 2 ch, ~ 76 Кбит/с
    Субтитры: Нет

    MI
    Общее
    Уникальный идентификатор : 234785849169796713928554780808002279477 (0xB0A21C18258F35C2B278B0CA774E1835)
    Полное имя : D:MOVIESOnly.The.Brave.2017.ExKinoRay.mkv
    Формат : Matroska
    Версия формата : Version 4 / Version 2
    Размер файла : 747 Мбайт
    Продолжительность : 2 ч. 14 м.
    Общий поток : 779 Кбит/сек
    Дата кодирования : UTC 2018-02-01 05:01:50
    Программа кодирования : mkvmerge v15.0.0 ("Duel with the Devil") 64-bit
    Библиотека кодирования : libebml v1.3.5 + libmatroska v1.4.5

    Видео
    Идентификатор : 1
    Формат : AVC
    Формат/Информация : Advanced Video Codec
    Профиль формата : High@L4.1
    Параметр CABAC формата : Да
    Параметр RefFrames формата : 10 кадров
    Идентификатор кодека : V_MPEG4/ISO/AVC
    Продолжительность : 2 ч. 14 м.
    Битрейт : 700 Кбит/сек
    Ширина : 736 пикселей
    Высота : 308 пикселей
    Соотношение сторон : 2,40:1
    Режим частоты кадров : Постоянный
    Частота кадров : 23,976 (24000/1001) кадра/сек
    Цветовое пространство : YUV
    Субдискретизация насыщенности : 4:2:0
    Битовая глубина : 8 бит
    Тип развёртки : Прогрессивная
    Бит/(Пиксели*Кадры) : 0.129
    Размер потока : 672 Мбайт (90%)
    Библиотека кодирования : x264 core 152 r2851 ba24899
    Настройки программы : cabac=1 / ref=10 / deblock=1:-3:-3 / analyse=0x3:0x133 / me=umh / subme=11 / psy=1 / psy_rd=1.00:0.12 / mixed_ref=1 / me_range=32 / chroma_me=1 / trellis=2 / 8x8dct=1 / cqm=0 / deadzone=21,11 / fast_pskip=0 / chroma_qp_offset=-3 / threads=6 / lookahead_threads=1 / sliced_threads=0 / nr=0 / decimate=0 / interlaced=0 / bluray_compat=0 / constrained_intra=0 / bframes=10 / b_pyramid=2 / b_adapt=2 / b_bias=0 / direct=3 / weightb=1 / open_gop=0 / weightp=2 / keyint=240 / keyint_min=23 / scenecut=40 / intra_refresh=0 / rc_lookahead=40 / rc=2pass / mbtree=0 / bitrate=700 / ratetol=1.0 / qcomp=0.60 / qpmin=0 / qpmax=69 / qpstep=4 / cplxblur=20.0 / qblur=0.5 / vbv_maxrate=50000 / vbv_bufsize=62500 / nal_hrd=none / filler=0 / ip_ratio=1.40 / pb_ratio=1.30 / aq=1:1.00
    Default : Да
    Forced : Нет

    Аудио
    Идентификатор : 2
    Формат : AAC
    Формат/Информация : Advanced Audio Codec
    Профиль формата : LC
    Идентификатор кодека : A_AAC
    Продолжительность : 2 ч. 14 м.
    Битрейт : 76,0 Кбит/сек
    Каналы : 2 канала
    Расположение каналов : Front: L R
    Частота : 48,0 КГц
    Частота кадров : 46,875 кадров/сек (1024 SPF)
    Метод сжатия : С потерями
    Задержка видео : 9 мс.
    Размер потока : 72,9 Мбайт (10%)
    Default : Да
    Forced : Нет

    Меню
    00:00:00.000 : en:00:00:00.000
    00:06:39.107 : en:00:06:39.107
    00:16:14.891 : en:00:16:14.891
    00:26:30.297 : en:00:26:30.297
    00:34:26.856 : en:00:34:26.856
    00:43:54.298 : en:00:43:54.298
    00:51:29.336 : en:00:51:29.336
    00:59:18.430 : en:00:59:18.430
    01:08:27.312 : en:01:08:27.312
    01:16:19.366 : en:01:16:19.366
    01:24:16.468 : en:01:24:16.468
    01:32:51.524 : en:01:32:51.524
    01:39:07.567 : en:01:39:07.567
    01:45:11.972 : en:01:45:11.972
    01:52:54.935 : en:01:52:54.935
    02:02:04.776 : en:02:02:04.776


    Скриншоты
    [img]http://i100.fastpic.ru/big/2018/0201/2f/22ccd56cb96484f654d9fd1ef229de2f.jpg[/img][img]http://i103.fastpic.ru/big/2018/0201/f2/3f1b9b81f29f3befb74f0874fc4898f2.jpg[/img][img]http://i100.fastpic.ru/big/2018/0201/70/f751df2194e6c7e852dba81092920270.jpg[/img][img]http://i99.fastpic.ru/big/2018/0201/5c/ac01720c79cadf58b9f76d747c39cd5c.jpg[/img]

    [img]http://i102.fastpic.ru/big/2018/0201/1d/db7b537c47bbe6556d11f64e74dd5d1d.jpg[/img][img]http://i101.fastpic.ru/big/2018/0201/11/e85c47e3c703fc761c1b7030f48d6e11.jpg[/img][img]http://i100.fastpic.ru/big/2018/0201/41/a4065204f8c7c67e866de3f9c1a14641.jpg[/img][img]http://i103.fastpic.ru/big/2018/0201/74/876fe299bd36f58508147ff6833b0474.jpg[/img]
    Еще похожие »

    Как скачать?
    1. Качаем UTorrent версии 2.0 и выше отсюда
    2. После установки, жмем на ссылку Скачать торрент.
    3. Открываем его через utorrent.
    4. Ждем пока подключатся участники.
    5. Качаем.


    Комментарии о Дело храбрых / Only the Brave | HDRip-AVC
    Добавлять комментарии могут только зарегистрированные пользователи

    Зарегистрироваться или Войти


    Ближайшее в кино
    • Богема дата выхода 24 февраля 2018Богема
      Дата выхода: 24 февраля 2018
    • Чёрная Пантера дата выхода 26 февраля 2018Чёрная Пантера
      Дата выхода: 26 февраля 2018
    • Сезанн. Портреты жизни дата выхода 28 февраля 2018Сезанн. Портреты жизни
      Дата выхода: 28 февраля 2018
    • Довлатов дата выхода 1 марта 2018Довлатов
      Дата выхода: 1 марта 2018
    • За гранью реальности дата выхода 1 марта 2018За гранью реальности
      Дата выхода: 1 марта 2018
    • Погружение дата выхода 1 марта 2018Погружение
      Дата выхода: 1 марта 2018
    • Купи меня дата выхода 1 марта 2018Купи меня
      Дата выхода: 1 марта 2018
    • Со дна вершины дата выхода 1 марта 2018Со дна вершины
      Дата выхода: 1 марта 2018
    • Мэри и ведьмин цветок дата выхода 1 марта 2018Мэри и ведьмин цветок
      Дата выхода: 1 марта 2018
    • Дрис ван Нотен дата выхода 1 марта 2018Дрис ван Нотен
      Дата выхода: 1 марта 2018
    • Поднять якоря! дата выхода 1 марта 2018Поднять якоря!
      Дата выхода: 1 марта 2018
    • Излом времени дата выхода 8 марта 2018Излом времени
      Дата выхода: 8 марта 2018
    • Пассажир дата выхода 8 марта 2018Пассажир
      Дата выхода: 8 марта 2018
    • Я худею дата выхода 8 марта 2018Я худею
      Дата выхода: 8 марта 2018
    • Кавалерия дата выхода 8 марта 2018Кавалерия
      Дата выхода: 8 марта 2018
    Вверх