• Игры для PS4
  • Игры для PS3
  • Игры для XBOX360
  • Игры для PC
  • Игры для PS2
  • Игры для PSP
  • Для телефонов
  • Музыка
  • Книги / Журналы
  • Обои
  • Опрос
    Откуда Вы о нас узнали?
      0
    • От знакомых2,1,false,300,full
    • Из социальных сетей2,2,false,300,full
    • Из поисковых систем2,3,false,300,full
    • Другое2,4,false,300,full
    Статистика
    Всего онлайн -
    Гостей -
    Пользователей -
    Короли трекера
    Благодарности () Закрыть
    Информация о фильме
    Название: Босиком / Босиком по стерне
    Оригинальное название: Po strnisti bos
    Год выхода: 2017
    Жанр: Комедия, драма, военный, экранизация
    Режиссер: Ян Сверак
    В ролях: Онджей Ветхий, Тереза Вожишкова, Алоис Грец, Ян Тжиска, Вера Павликова, Олджих Кайсер

    О фильме:
    Во время немецкой оккупации семья Эды вынуждена переехать из Праги в деревню. Место, куда мальчик приезжал только на каникулы, становится его новым домом. Городская семья должна приспособиться к новой обстановке и совместной жизни с тётей и её близкими, среди которых и строгий дедушка. Перед Эдой стоит нелёгкая задача: найти и удержать своё место в компании деревенских мальчиков, чьи взгляды на мир кардинально отличаются.


    Страна: Чехия, Словакия, Дания
    Студия: Biograf Jan Svěrák, Phoenix Film, Novinski
    Продолжительность: 01:49:37
    Перевод: Professor
    Озвучка: Любительская двухголосая Levelin

    Файл
    Кодек: h.264
    Качество: WebRip-AVC
    Видео: 720x304, 2.35:1, 24.000 fps, 1846 kbps
    Звук:
    Аудио 1: AC3, 48000 Hz, 2 ch, 192 kbps (русский)
    Аудио 2: AC3, 48000 Hz, 2 ch, 224 kbps (чешский)
    Субтитры: русские ass

    MediaInfo

    General
    Unique ID                                : 170267026704536443619528107211000091810 (0x80183C8D0C012D2EC9CD276370A794A2)
    Complete name                            : Po strnisti bos.2017.RUS.WebRip.mkv
    Format                                   : Matroska
    Format version                           : Version 4 / Version 2
    File size                                : 1.73 GiB
    Duration                                 : 1 h 49 min
    Overall bit rate                         : 2 264 kb/s
    Movie name                               : Po.strnisti.bos.2017.CZ.WEBRip.x264.DD2.0-BST
    Encoded date                             : UTC 2018-02-11 22:47:19
    Writing application                      : mkvmerge v15.0.0 ("Duel with the Devil") 64-bit
    Writing library                          : libebml v1.3.5 + libmatroska v1.4.5

    Video
    ID                                       : 1
    Format                                   : AVC
    Format/Info                              : Advanced Video Codec
    Format profile                           : High@L4.1
    Format settings, CABAC                   : Yes
    Format settings, RefFrames               : 16 frames
    Codec ID                                 : V_MPEG4/ISO/AVC
    Duration                                 : 1 h 49 min
    Bit rate                                 : 1 846 kb/s
    Width                                    : 720 pixels
    Height                                   : 304 pixels
    Display aspect ratio                     : 2.35:1
    Frame rate mode                          : Constant
    Frame rate                               : 24.000 FPS
    Color space                              : YUV
    Chroma subsampling                       : 4:2:0
    Bit depth                                : 8 bits
    Scan type                                : Progressive
    Bits/(Pixel*Frame)                       : 0.351
    Stream size                              : 1.41 GiB (82%)
    Title                                    : Po.strnisti.bos.2017.WEBRip.x264-BST
    Writing library                          : x264 core 144 r2525 40bb568
    Encoding settings                        : cabac=1 / ref=16 / deblock=1:-3:-3 / analyse=0x3:0x113 / me=umh / subme=7 / psy=0 / mixed_ref=1 / me_range=16 / chroma_me=1 / trellis=2 / 8x8dct=1 / cqm=0 / deadzone=21,11 / fast_pskip=1 / chroma_qp_offset=0 / threads=12 / lookahead_threads=2 / sliced_threads=0 / nr=0 / decimate=0 / interlaced=0 / bluray_compat=0 / constrained_intra=0 / bframes=12 / b_pyramid=2 / b_adapt=2 / b_bias=0 / direct=1 / weightb=1 / open_gop=0 / weightp=1 / keyint=240 / keyint_min=24 / scenecut=40 / intra_refresh=0 / rc_lookahead=40 / rc=2pass / mbtree=1 / bitrate=1846 / ratetol=1.0 / qcomp=0.60 / qpmin=0 / qpmax=69 / qpstep=4 / cplxblur=20.0 / qblur=0.5 / vbv_maxrate=62500 / vbv_bufsize=78125 / nal_hrd=none / filler=0 / ip_ratio=1.40 / aq=1:1.00
    Language                                 : English
    Default                                  : Yes
    Forced                                   : Yes

    Audio #1
    ID                                       : 2
    Format                                   : AC-3
    Format/Info                              : Audio Coding 3
    Format settings, Endianness              : Big
    Codec ID                                 : A_AC3
    Duration                                 : 1 h 49 min
    Bit rate mode                            : Constant
    Bit rate                                 : 192 kb/s
    Channel(s)                               : 2 channels
    Channel positions                        : Front: L R
    Sampling rate                            : 48.0 kHz
    Frame rate                               : 31.250 FPS (1536 SPF)
    Bit depth                                : 16 bits
    Compression mode                         : Lossy
    Stream size                              : 151 MiB (8%)
    Language                                 : Russian
    Service kind                             : Complete Main
    Default                                  : Yes
    Forced                                   : No

    Audio #2
    ID                                       : 3
    Format                                   : AC-3
    Format/Info                              : Audio Coding 3
    Format settings, Endianness              : Big
    Codec ID                                 : A_AC3
    Duration                                 : 1 h 49 min
    Bit rate mode                            : Constant
    Bit rate                                 : 224 kb/s
    Channel(s)                               : 2 channels
    Channel positions                        : Front: L R
    Sampling rate                            : 48.0 kHz
    Frame rate                               : 31.250 FPS (1536 SPF)
    Bit depth                                : 16 bits
    Compression mode                         : Lossy
    Stream size                              : 176 MiB (10%)
    Language                                 : Czech
    Service kind                             : Complete Main
    Default                                  : No
    Forced                                   : Yes

    Text
    ID                                       : 4
    Format                                   : ASS
    Codec ID                                 : S_TEXT/ASS
    Codec ID/Info                            : Advanced Sub Station Alpha
    Duration                                 : 1 h 44 min
    Bit rate                                 : 91 b/s
    Count of elements                        : 893
    Compression mode                         : Lossless
    Stream size                              : 70.5 KiB (0%)
    Language                                 : Russian
    Default                                  : Yes
    Forced                                   : No

    Menu
    00:00:00.000                             : en:1
    00:11:42.750                             : en:2
    00:21:19.583                             : en:3
    00:30:00.874                             : en:4
    00:40:14.124                             : en:5
    00:51:36.915                             : en:6
    01:00:25.248                             : en:7
    01:09:54.914                             : en:8
    01:20:55.789                             : en:9
    01:33:53.205                             : en:10
    01:45:20.996                             : en:11

    Свернуть


    Похожие раздачи Искать похожие
    Инструкция по скачиванию
     1  Качаем uTorrent версии 2.0 и выше
     2  После установки, жмем выше под постером на ссылку Скачать [MediaGet] или Скачать .torrent
     3  Открываем скачанный файл через соответствующий клиент: MediaGet или uTorrent
     4  Ждем пока подключатся участники
     5  Качаем
    Комментарии о  Босиком / Босиком по стерне / Po strnisti bos | WEBRip-AVC 
    Ближайшее в кино
    Вверх