• Игры для PS3
  • Игры для XBOX360
  • Игры для PC
  • Игры для PS2
  • Игры для PSP
  • Для телефонов
  • Музыка
  • Книги/Журналы
  • Обои
  •  
    Опрос
    Удобен ли сайт в использовании?
      0
    • Очень удобен, все понятно1,1,false,300,full
    • Удобен1,2,false,300,full
    • Средне1,3,false,300,full
    • Неудобен, трудно ориентироваться1,4,false,300,full
    • Совсем неудобен1,5,false,300,full
    Статистика
    Загрузка...
    Племена и империи: Буря (шторм) пророчества / Hai Shang Mu Yun Ji [Сезон 01 | 01-06 серии из 75] | HDTVRip 720p
    Статус  Проверено
    В закладки
    Модератор: Max

    Племена и империи: Буря (шторм) пророчества / Hai Shang Mu Yun Ji [Сезон 01 | 01-06 серии из 75] | HDTVRip 720p [Сериалы 2017] скачать торрентом/torrent бесплатно

    Год выхода
    Категории
    Язык
    Закачал
    Аноним | 12 февраля в 08ч 52м 34с
    Раздел
    Отзывов
    0
    Раздают: 1 Качают: 2 Скачали: 1 Размер: 5.77 GB
    Инфо о раздаче | Благодарности |
    0/5
    0
    0 5 0
    Поддержи нас — расскажи друзьям!
    Orbitum
    Новый интернет-браузер Быстрее загружает сайты Экономит интернет—трафик Меняет оформление страницы ВК Блокирует всю рекламу на сайтах Загружает торренты как

    µTorrent

    клиент
    Объеденяет все твои чаты из соц. сетей в один Проигрывает твою музыку не заходя во ВКонтакте
    Скачать и многое другое... Подробности на сайте производителя
    Название: Племена и империи: Буря (шторм) пророчества
    Оригинальное название: Hai Shang Mu Yun Ji
    Год выпуска: 2017
    Жанр:  Фэнтези, драма, мелодрама, приключения, военный
    Выпущено: Китай
    Режиссер: Дан Као

    В ролях:
    Сюй Лу, Юй Хао Мин, Хуан Сюань, Шон Доу, Хо Чжэн Янь, Чжоу И Вэй, Ван Цаньюань

    Описание сериала:
    Фантастический мир Новоландии. Девять земель и множество народов!. Три молодых человека. Каждому при рождении было предначертано вершить великие дела и разрушить этот мир! Каждому судьба приготовила суровые испытания! Муюнь Шэн-шестой принц, наполовину демон, наполовину человек. При рождении ему предсказали, что его судьба – стать императором и разрушить мир. Как-то раз в его руках оказался загадочный артефакт. По словам продавца, в артефакте был заключен целый мир. С той поры главной целью принца стало найти путь внутрь артефакта,что бы быть с той о ком тоскует его сердце. Мужу Ханьцзяна-сын генерала, лучшего и верного друга императора. Ему в момент рождения было предсказано что он уничтожит императорский род и воцарится на престоле. Отец верный своей дружбе отказывается от сына и еще младенцем оставляет его в голой степи на смерть. Но судьбу нельзя изменить. И однажды, мальчик возвращается к своей семье. Император поселяет его во дворце и он становится другом шестого принца. Шофэн Хэе- сын вождя истреблённго племени поклялся на крови своего отца что вернет своему народу отнятые земли. Так начинают сбываться пророчества ! И ни кто не в силах это изменить! Буря, сметающая племена и империи, уничтожающая мир Новоландии, уже поднимается!!!!!!!!!!



    Страна: Китай
    Продолжительность: ~ 00:45:00
    Перевод: Любительский многоголосый (RusFilm&Asian Miracle Group)
    Субтитры: Китайские (хардсаб)

    Файл
    Формат: MKV
    Качество: HDTVRip (720p)

    Видео: MPEG-4 AVC, ~ 3000 Кбит/с, 1280x720
    Аудио: 48 kHz, AC3 Dolby Digital, 2/0 (L,R) ch, ~192 kbps

    Реклама: Отсутствует

    MediaInfo

    Format                      : Matroska
    Format version              : Version 2
    File size                   : 991 MiB
    Duration                    : 45mn 50s
    Overall bit rate            : 3 022 Kbps
    Writing application         : libmatroska 1.4.1
    Writing library             : SolveigMM Matroska Muxer Version 1.0.1502.31

    Video
    ID                          : 1
    Format                      : AVC
    Format/Info                 : Advanced Video Codec
    Format profile              : Main@L3.1
    Format settings, CABAC      : Yes
    Format settings, ReFrames   : 4 frames
    Codec ID                    : V_MPEG4/ISO/AVC
    Duration                    : 45mn 50s
    Bit rate                    : 2 769 Kbps
    Width                       : 1 280 pixels
    Height                      : 720 pixels
    Display aspect ratio        : 16:9
    Frame rate mode             : Constant
    Frame rate                  : 25.000 fps
    Color space                 : YUV
    Chroma subsampling          : 4:2:0
    Bit depth                   : 8 bits
    Scan type                   : Progressive
    Bits/(Pixel*Frame)          : 0.120
    Stream size                 : 908 MiB (92%)
    Writing library             : x264 core 146
    Encoding settings           : cabac=1 / ref=1 / deblock=1:0:0 / analyse=0x1:0x1 / me=dia / subme=1 / psy=1 / psy_rd=1.00:0.00 / mixed_ref=0 / me_range=16 / chroma_me=1 / trellis=0 / 8x8dct=0 / cqm=0 / deadzone=21,11 / fast_pskip=1 / chroma_qp_offset=0 / threads=3 / lookahead_threads=1 / sliced_threads=0 / nr=0 / decimate=1 / interlaced=0 / bluray_compat=0 / constrained_intra=0 / bframes=3 / b_pyramid=2 / b_adapt=1 / b_bias=0 / direct=1 / weightb=1 / open_gop=0 / weightp=1 / keyint=250 / keyint_min=25 / scenecut=40 / intra_refresh=0 / rc=crf / mbtree=0 / crf=23.0 / qcomp=0.60 / qpmin=0 / qpmax=69 / qpstep=4 / ip_ratio=1.40 / pb_ratio=1.30 / aq=1:1.00
    Language                    : English
    Default                     : No
    Forced                      : No

    Audio
    ID                          : 2
    Format                      : AC-3
    Format/Info                 : Audio Coding 3
    Mode extension              : CM (complete main)
    Format settings, Endianness : Big
    Codec ID                    : A_AC3
    Duration                    : 45mn 50s
    Bit rate mode               : Constant
    Bit rate                    : 192 Kbps
    Channel(s)                  : 2 channels
    Channel positions           : Front: L R
    Sampling rate               : 48.0 KHz
    Frame rate                  : 31.250 fps (1536 spf)
    Bit depth                   :  bit0
    Compression mode            : Lossy
    Stream size                 : 63.0 MiB (6%)
    Language                    : English
    Default                     : No
    Forced                      : No


    Скриншоты
    [img]http://i102.fastpic.ru/big/2018/0116/e7/3e297efd3a84717f259b58007be12de7.jpg[/img][img]http://i102.fastpic.ru/big/2018/0116/3e/d5f21939b2b8d6c0d589c11c40b4133e.jpg[/img]
    [img]http://i102.fastpic.ru/big/2018/0116/f0/02056c0cc58f3eedf97bfe34eef864f0.jpg[/img][img]http://i102.fastpic.ru/big/2018/0116/f0/f25a6c3d014cf4867ed692a72bba7bf0.jpg[/img]
    Еще похожие »

    Как скачать?
    1. Качаем UTorrent версии 2.0 и выше отсюда
    2. После установки, жмем на ссылку Скачать торрент.
    3. Открываем его через utorrent.
    4. Ждем пока подключатся участники.
    5. Качаем.


    Комментарии о Племена и империи: Буря (шторм) пророчества / Hai Shang Mu Yun Ji [Сезон 01 | 01-06 серии из 75] | HDTVRip 720p
    Добавлять комментарии могут только зарегистрированные пользователи

    Зарегистрироваться или Войти


    Ближайшее в кино
    • Невидимый гость дата выхода 31 мая 2018Невидимый гость
      Дата выхода: 31 мая 2018
    • 762500|Красный воробей|31 мая 2018|200|300Красный воробей
      Дата выхода: 31 мая 2018
    • 843121|Как разговаривать с девушками на вечеринках|31 мая 2018|200|300Как разговаривать с девушками на вечеринках
      Дата выхода: 31 мая 2018
    • 965611|Истории призраков|31 мая 2018|200|300Истории призраков
      Дата выхода: 31 мая 2018
    • 1048530|Моя жизнь|31 мая 2018|200|300Моя жизнь
      Дата выхода: 31 мая 2018
    • 1030828|Псы под прикрытием|31 мая 2018|200|300Псы под прикрытием
      Дата выхода: 31 мая 2018
    • 927822|Два хвоста|31 мая 2018|200|300Два хвоста
      Дата выхода: 31 мая 2018
    • 1061480|От семьи не убежишь|31 мая 2018|200|300От семьи не убежишь
      Дата выхода: 31 мая 2018
    • 1057083|Сказки о маме|31 мая 2018|200|300Сказки о маме
      Дата выхода: 31 мая 2018
    • 924311|Мир Юрского периода 2|7 июня 2018|200|300Мир Юрского периода 2
      Дата выхода: 7 июня 2018
    • 1074222|Красотка на всю голову|7 июня 2018|200|300Красотка на всю голову
      Дата выхода: 7 июня 2018
    • 1009413|Лето|7 июня 2018|200|300Лето
      Дата выхода: 7 июня 2018
    • 935794|Первые|7 июня 2018|200|300Первые
      Дата выхода: 7 июня 2018
    • 1112132|Реинкарнация|7 июня 2018|200|300Реинкарнация
      Дата выхода: 7 июня 2018
    • 1118194|Решение о ликвидации|7 июня 2018|200|300Решение о ликвидации
      Дата выхода: 7 июня 2018
    Вверх