• Игры для PS4
  • Игры для PS3
  • Игры для XBOX360
  • Игры для PC
  • Игры для PS2
  • Игры для PSP
  • Для телефонов
  • Музыка
  • Книги / Журналы
  • Обои
  • Опрос
    Удобен ли сайт в использовании?
      0
    • Очень удобен, все понятно1,1,false,300,full
    • Удобен1,2,false,300,full
    • Средне1,3,false,300,full
    • Неудобен, трудно ориентироваться1,4,false,300,full
    • Совсем неудобен1,5,false,300,full
    Статистика
    Всего онлайн -
    Гостей -
    Пользователей -
    Короли трекера
    Благодарности () Закрыть
    Информация о фильме
    Название: Волк
    Оригинальное название: Loup
    Год выхода: 2009
    Жанр: Драма, приключения
    Режиссер: Николя Ванье
    В ролях: Николя Бриуде, Пом Клементьефф, Мин Мэн Ма, Ванта Талисман, Бернард Вонг, Гюгрон Киап, Кавель Кем, Вассильев Герассен

    О фильме: Сергей - эвенк, это кочевые оленеводы, которые живут в горах восточной Сибири. В возрасте 16 лет, Сергей назначен охранять большое стадо рода Batagai. Этот род - чей глава является его отцом - состоит из четырех семей и их стада 3000 северных оленей, которое они ведут от одного стойбища до другого, по воле сезонов. В этой бескрайности, бродит волк и постоянно угрожает северным оленям, единственному богатству и гордости эвенов. С самого раннего возраста, Сергей обучился охотиться и уничтожать волков без жалости. До тех пор пока встреча с волчицей и ее четырьмя восхитительными волчатами, не потрясла всю его уверенность... Чтобы защитить своих волков, Сергей собирается нарушить тысячелетние законы своего народа и таким образом предает отца и свой род. В силу молодости и беззаботности, Сергей собирается пренебречь запретом, подросток и волчата привязываются друг к другу. Он разделит эту тяжелую тайну с любимой девушкой - красивой Настасьей. Но волк хранит свой инстинкт хищника...

    [img]http://i89.fastpic.ru/big/2017/0502/69/67d521d70873d2399dac9e7d05d0b369.png[/img]

    Страна: Франция
    Студия: MC4 Productions, Pathé, France 3 Cinéma
    Продолжительность: 01:45:37
    Перевод: Любительский (одноголосый, закадровый) (Hammer1978)
    Субтитры: Нет

    Файл
    Кодек: XviD
    Качество: HDRip
    Видео: 640x272 (2.35:1), 24 fps, XviD build 73 ~788 kbps avg, 0.19 bit/pixel
    Звук: 48 kHz, MPEG Layer 3, 2 ch, ~128.00 kbps avg

    MediaInfo
    General
    Complete name               : Loup.2009.HDRip.ot.Portablius.avi
    Format                      : AVI
    Format/Info                 : Audio Video Interleave
    File size                   : 700 MiB
    Duration                    : 1 h 45 min
    Overall bit rate            : 926 kb/s
    Writing application         : VirtualDubMod 1.5.10.3 | www.virtualdub-fr.org || (build 2550/release)
    Writing library             : VirtualDubMod build 2550/release

    Video
    ID                          : 0
    Format                      : MPEG-4 Visual
    Format profile              : Advanced Simple@L5
    Format settings, BVOP       : 1
    Format settings, QPel       : No
    Format settings, GMC        : No warppoints
    Format settings, Matrix     : Custom
    Codec ID                    : XVID
    Codec ID/Hint               : XviD
    Duration                    : 1 h 45 min
    Bit rate                    : 789 kb/s
    Width                       : 640 pixels
    Height                      : 272 pixels
    Display aspect ratio        : 2.35:1
    Frame rate                  : 24.000 FPS
    Color space                 : YUV
    Chroma subsampling          : 4:2:0
    Bit depth                   : 8 bits
    Scan type                   : Progressive
    Compression mode            : Lossy
    Bits/(Pixel*Frame)          : 0.189
    Stream size                 : 596 MiB (85%)
    Writing library             : XviD 73

    Audio
    ID                          : 1
    Format                      : MPEG Audio
    Format version              : Version 1
    Format profile              : Layer 3
    Codec ID                    : 55
    Codec ID/Hint               : MP3
    Duration                    : 1 h 45 min
    Bit rate mode               : Constant
    Bit rate                    : 128 kb/s
    Channel(s)                  : 2 channels
    Sampling rate               : 48.0 kHz
    Compression mode            : Lossy
    Stream size                 : 96.7 MiB (14%)
    Alignment                   : Aligned on interleaves
    Interleave, duration        : 42  ms (1.00 video frame)
    Interleave, preload duratio : 504  ms
    Writing library             : LAME3.99r
    Encoding settings           : -m s -V 4 -q 2 -lowpass 17 -b 128

    Свернуть


    Скриншоты
    [screen]http://i3.imageban.ru/out/2018/02/12/2282e91f9b110c3eb2d8ed5f7d37cbbe.png[/screen][screen]http://i5.imageban.ru/out/2018/02/12/481ae251ac580800ab385d0f9333379e.png[/screen][screen]http://i2.imageban.ru/out/2018/02/12/e0ad42bbd657e9b4fcb1d202b7969529.png[/screen][screen]http://i3.imageban.ru/out/2018/02/12/8c4a8ef4fed4eb951b8d497a034c581c.png[/screen][screen]http://i1.imageban.ru/out/2018/02/12/9c9590bedba1387ab1c7f8137ceea7fa.png[/screen][screen]http://i5.imageban.ru/out/2018/02/12/4b5c129657968bf3be4f20e1cf6d6800.png[/screen]Свернуть
    Похожие раздачи Искать похожие
    Инструкция по скачиванию
     1  Качаем uTorrent версии 2.0 и выше
     2  После установки, жмем выше под постером на ссылку Скачать [MediaGet] или Скачать .torrent
     3  Открываем скачанный файл через соответствующий клиент: MediaGet или uTorrent
     4  Ждем пока подключатся участники
     5  Качаем
    Комментарии о  Волк / Loup | HDRip 
    Ближайшее в кино
    Вверх