• Игры для PS3
  • Игры для XBOX360
  • Игры для PC
  • Игры для PS2
  • Игры для PSP
  • Для телефонов
  • Музыка
  • Книги/Журналы
  • Обои
  •  
    Опрос
    Удобен ли сайт в использовании?
      0
    • Очень удобен, все понятно1,1,false,300,full
    • Удобен1,2,false,300,full
    • Средне1,3,false,300,full
    • Неудобен, трудно ориентироваться1,4,false,300,full
    • Совсем неудобен1,5,false,300,full
    Статистика
    Загрузка...
    Действующие лица с Наилей Аскер-заде. Сергей Лавров [11.02] | HDTV 1080i
    Статус  Проверено
    В закладки
    Модератор: Max

    Действующие лица с Наилей Аскер-заде. Сергей Лавров [11.02] | HDTV 1080i [Сериалы 2018] скачать торрентом/torrent бесплатно

    Год выхода
    Категории
    Язык
    Закачал
    Аноним | 12 февраля 2018 в 12ч 54м 52с
    Раздел
    Отзывов
    0
    Раздают: 3 Качают: 2 Скачали: 6 Размер: 2.44 GB
    Инфо о раздаче | Благодарности |
    0/5
    0
    Поддержи нас — расскажи друзьям!
    Orbitum
    Новый интернет-браузер Быстрее загружает сайты Экономит интернет—трафик Меняет оформление страницы ВК Блокирует всю рекламу на сайтах Загружает торренты как

    µTorrent

    клиент
    Объеденяет все твои чаты из соц. сетей в один Проигрывает твою музыку не заходя во ВКонтакте
    Скачать и многое другое... Подробности на сайте производителя
    Информация о фильме
    Название: Действующие лица с Наилей Аскер-заде. Сергей Лавров
    Год выхода: 11.02.2018
    Жанр: Документальный, авторская передача

    О фильме:
    Программа «Действующие лица с Наилей Аскер-заде» состоит из откровенных интервью известных российских политиков и бизнесменов, оказывающих ключевое влияние на жизнь миллионов людей. В разговоре с экономическим обозревателем программы «Вести», они признаются в маленьких человеческих слабостях, расскажут о своих увлечениях и страхах.

    Героем выпуска стал министр иностранных дел Сергей Лавров.
    Отношения России и США. Ситуация на Украине. Иранское досье. Ядерная угроза. Вашингтон против Пекина. Территориальный спор.

    Страна: Россия
    Студия: ВГТРК, Россия 1 HD
    Продолжительность: 00:47:10
    Перевод: Не требуется

    Файл
    Кодек: h.264
    Качество: НDTV 1080i
    Видео: AVC MPEG-4, 1920x1080 (16:9), ~6886 Kbps, 50 fps
    Звук: Русский, AAC, 2 ch, 510 Kbps

    Mediainfo

    General
    Unique ID                   : 309612816753241434187615072424233388692 (0xE8ED426E45968F054ACA578A17DDCA94)
    Complete name               : D:FilmДействующие лица с Наилей Аскер-заде. Сергей Лавров.mkv
    Format                      : Matroska
    Format version              : Version 4 / Version 2
    File size                   : 2.44 GiB
    Duration                    : 47 min 10 s
    Overall bit rate            : 7 400 kb/s
    Encoded date                : UTC 2018-02-12 07:40:22
    Writing application         : mkvmerge v20.0.0 ("I Am The Sun") 64-bit
    Writing library             : libebml v1.3.5 + libmatroska v1.4.8
    Cover                       : Yes
    Attachments                 : cover.png

    Video
    ID                          : 1
    Format                      : AVC
    Format/Info                 : Advanced Video Codec
    Format profile              : High@L4
    Format settings             : CABAC / 4 Ref Frames
    Format settings, CABAC      : Yes
    Format settings, RefFrames  : 4 frames
    Codec ID                    : V_MPEG4/ISO/AVC
    Duration                    : 47 min 10 s
    Bit rate                    : 6 886 kb/s
    Width                       : 1 920 pixels
    Height                      : 1 080 pixels
    Display aspect ratio        : 16:9
    Frame rate mode             : Variable
    Frame rate                  : 50.000 FPS
    Original frame rate         : 25.000 FPS
    Standard                    : Component
    Color space                 : YUV
    Chroma subsampling          : 4:2:0
    Bit depth                   : 8 bits
    Scan type                   : Interlaced
    Scan type, store method     : Separated fields
    Scan order                  : Top Field First
    Bits/(Pixel*Frame)          : 0.066
    Stream size                 : 2.27 GiB (93%)
    Language                    : Russian
    Default                     : Yes
    Forced                      : No
    Color range                 : Limited
    Color primaries             : BT.709
    Transfer characteristics    : BT.709
    Matrix coefficients         : BT.709

    Audio
    ID                          : 2
    Format                      : AAC
    Format/Info                 : Advanced Audio Codec
    Format profile              : LC
    Codec ID                    : A_AAC-2
    Duration                    : 47 min 10 s
    Bit rate                    : 510 kb/s
    Channel(s)                  : 2 channels
    Channel positions           : Front: L R
    Sampling rate               : 44.1 kHz
    Frame rate                  : 43.066 FPS (1024 SPF)
    Compression mode            : Lossy
    Delay relative to video     : 131 ms
    Stream size                 : 172 MiB (7%)
    Language                    : Russian
    Default                     : Yes
    Forced                      : No



    Еще похожие »

    Как скачать?
    1. Качаем UTorrent версии 2.0 и выше отсюда
    2. После установки, жмем на ссылку Скачать торрент.
    3. Открываем его через utorrent.
    4. Ждем пока подключатся участники.
    5. Качаем.


    Комментарии о Действующие лица с Наилей Аскер-заде. Сергей Лавров [11.02] | HDTV 1080i
    Добавлять комментарии могут только зарегистрированные пользователи

    Зарегистрироваться или Войти


    Ближайшее в кино
    • Секретное досье дата выхода 22 февраля 2018Секретное досье
      Дата выхода: 22 февраля 2018
    • О чём говорят мужчины. Продолжение дата выхода 22 февраля 2018О чём говорят мужчины. Продолжение
      Дата выхода: 22 февраля 2018
    • Все деньги мира дата выхода 22 февраля 2018Все деньги мира
      Дата выхода: 22 февраля 2018
    • Рубеж дата выхода 22 февраля 2018Рубеж
      Дата выхода: 22 февраля 2018
    • Дикий дата выхода 22 февраля 2018Дикий
      Дата выхода: 22 февраля 2018
    • Кикбоксер возвращается дата выхода 22 февраля 2018Кикбоксер возвращается
      Дата выхода: 22 февраля 2018
    • На пределе дата выхода 22 февраля 2018На пределе
      Дата выхода: 22 февраля 2018
    • Ночные игры дата выхода 22 февраля 2018Ночные игры
      Дата выхода: 22 февраля 2018
    • Человек, который спас мир дата выхода 22 февраля 2018Человек, который спас мир
      Дата выхода: 22 февраля 2018
    • Гномы в доме дата выхода 22 февраля 2018Гномы в доме
      Дата выхода: 22 февраля 2018
    • Кошка на раскалённой крыше дата выхода 22 февраля 2018Кошка на раскалённой крыше
      Дата выхода: 22 февраля 2018
    • Вся наша надежда дата выхода 22 февраля 2018Вся наша надежда
      Дата выхода: 22 февраля 2018
    • В Питере – петь. Сергей Шнуров дата выхода 22 февраля 2018В Питере – петь. Сергей Шнуров
      Дата выхода: 22 февраля 2018
    • Богема дата выхода 24 февраля 2018Богема
      Дата выхода: 24 февраля 2018
    • Чёрная Пантера дата выхода 26 февраля 2018Чёрная Пантера
      Дата выхода: 26 февраля 2018
    Вверх