• Игры для PS4
  • Игры для PS3
  • Игры для XBOX360
  • Игры для PC
  • Игры для PS2
  • Игры для PSP
  • Для телефонов
  • Музыка
  • Книги / Журналы
  • Обои
  • Опрос
    Откуда Вы о нас узнали?
      0
    • От знакомых2,1,false,300,full
    • Из социальных сетей2,2,false,300,full
    • Из поисковых систем2,3,false,300,full
    • Другое2,4,false,300,full
    Статистика
    Всего онлайн -
    Гостей -
    Пользователей -
    Короли трекера
    Благодарности () Закрыть
    Информация о фильме
    Название: Рождество в Эль-Камино
    Оригинальное название: El Camino Christmas
    Год выпуска: 2017
    Страна: США
    Жанр: комедия

    Перевод: Любительский многоголосый [HDrezka Studio]
    Примечание: Релиз без рекламы
    Продолжительность: 01:29:15

    Режиссер: Дэвид Е. Талберт
    В ролях: Дэкс Шепард (Deputy Billy Calhoun), Кертвуд Смит (Sheriff Bob Fuller), Люк Граймс (Eric Roth), Эмилио Ривера (Vicente Santos), Кимберли Куинн (Jewels), Купер Торнтон (Stan the Weather Man), Шэрон Мэдден (Edna), Мишель Майлетт (Kate Daniels), Винсент Д’Онофрио (Carl Hooker), Джон Пози (Old Farmer), Ashton Bright (Seth), Маргарита Франко (Dr. Kamjen)

    Описание:
    В центре сюжета - парень, попавший накануне Рождества в нелепую ситуацию. Главный герой оказывается запертым в магазине спиртного вместе с ещё пятью неудачниками.

    Рейтинг:


    Качество: WEBRip
    Формат: AVI
    Видео: XviD, 720x304 (2.35:1), 1823 kbps, 23,976 fps, 0,347 bpp
    Аудио: AC3 / 2.0 / 48 kHz / 384 kbps /
    Сэмпл

    ОтчетМедиаИнфо

    General
    Complete name                            : E:El.Camino.Christmas.2017.WEBRip.MVO.R.G.Resident.avi
    Format                                   : AVI
    Format/Info                              : Audio Video Interleave
    File size                                : 1.38 GiB
    Duration                                 : 1 h 29 min
    Overall bit rate                         : 2 216 kb/s
    Writing application                      : VirtualDubModRus 1.5.10.2 (build 2542/release)
    Writing library                          : VirtualDubMod build 2542/release

    Video
    ID                                       : 0
    Format                                   : MPEG-4 Visual
    Format profile                           : Advanced Simple@L5
    Format settings, BVOP                    : 2
    Format settings, QPel                    : No
    Format settings, GMC                     : No warppoints
    Format settings, Matrix                  : Custom
    Codec ID                                 : XVID
    Codec ID/Hint                            : XviD
    Duration                                 : 1 h 29 min
    Bit rate                                 : 1 823 kb/s
    Width                                    : 720 pixels
    Height                                   : 304 pixels
    Display aspect ratio                     : 2.35:1
    Frame rate                               : 23.976 (24000/1001) FPS
    Color space                              : YUV
    Chroma subsampling                       : 4:2:0
    Bit depth                                : 8 bits
    Scan type                                : Progressive
    Compression mode                         : Lossy
    Bits/(Pixel*Frame)                       : 0.347
    Stream size                              : 1.14 GiB (82%)
    Writing library                          : XviD 73

    Audio
    ID                                       : 1
    Format                                   : AC-3
    Format/Info                              : Audio Coding 3
    Mode extension                           : CM (complete main)
    Format settings, Endianness              : Big
    Codec ID                                 : 2000
    Duration                                 : 1 h 29 min
    Bit rate mode                            : Constant
    Bit rate                                 : 384 kb/s
    Channel(s)                               : 2 channels
    Channel positions                        : Front: L R
    Sampling rate                            : 48.0 kHz
    Frame rate                               : 31.250 FPS (1536 spf)
    Compression mode                         : Lossy
    Stream size                              : 245 MiB (17%)
    Alignment                                : Split accross interleaves
    Interleave, duration                     : 42  ms (1.00 video frame)
    Interleave, preload duration             : 500  ms

    Свернуть


    Скриншоты
    [screen]http://i2.imageban.ru/out/2018/02/12/4e1c27f87edf0f906d3534ccafafacf6.png[/screen][screen]http://i2.imageban.ru/out/2018/02/12/0f0831046c09f404ce83bf3c277238cc.png[/screen][screen]http://i6.imageban.ru/out/2018/02/12/337e7584cf1add95ded93f80877a915a.png[/screen][screen]http://i6.imageban.ru/out/2018/02/12/fce9bc797fcc110ae6e685dd288f2de5.png[/screen] Свернуть
    Похожие раздачи Искать похожие
    Инструкция по скачиванию
     1  Качаем uTorrent версии 2.0 и выше
     2  После установки, жмем выше под постером на ссылку Скачать [MediaGet] или Скачать .torrent
     3  Открываем скачанный файл через соответствующий клиент: MediaGet или uTorrent
     4  Ждем пока подключатся участники
     5  Качаем
    Комментарии о  Рождество в Эль-Камино / El Camino Christmas | WEBRip 
    Ближайшее в кино
    Вверх